<?xml version="1.0" standalone="no"?>
<!DOCTYPE svg PUBLIC "-//W3C//DTD SVG 1.1//EN" "http://www.w3.org/Graphics/SVG/1.1/DTD/svg11.dtd" >
<!--
2020-10-21: Created with FontForge (http://fontforge.org)
-->
<svg xmlns="http://www.w3.org/2000/svg" xmlns:xlink="http://www.w3.org/1999/xlink" version="1.1">
<metadata>
Created by FontForge 20170731 at Wed Oct 21 12:39:37 2020
 By root

</metadata>
<defs>
<font id="Flaticon" horiz-adv-x="512" >
  <font-face 
    font-family="Flaticon"
    font-weight="400"
    font-stretch="normal"
    units-per-em="512"
    panose-1="2 0 5 3 0 0 0 0 0 0"
    ascent="448"
    descent="-64"
    bbox="-0.0301118 -64.002 512.001 448.812"
    underline-thickness="25.6"
    underline-position="-51.2"
    unicode-range="U+0020-F13F"
  />
    <missing-glyph />
    <glyph glyph-name="space" unicode=" " horiz-adv-x="200" 
 />
    <glyph glyph-name="001-right" unicode="&#xf100;" 
d="M505.027 208.834c9.29785 -9.29785 9.29785 -24.3701 0 -33.668l-152.358 -152.363c-4.64941 -4.64453 -10.7422 -6.97266 -16.835 -6.97266s-12.1865 2.32812 -16.834 6.97266c-9.29785 9.29785 -9.29785 24.3711 0 33.6689l111.718 111.722h-406.911
c-13.1465 0 -23.8066 10.6611 -23.8066 23.8066c0 13.1475 10.6602 23.8066 23.8066 23.8066h406.911l-111.722 111.722c-9.29785 9.29785 -9.29785 24.3711 0 33.6689c9.2959 9.2959 24.3721 9.2959 33.6689 0z" />
    <glyph glyph-name="034-star-1" unicode="&#xf121;" 
d="M512 250.181l-142.656 -120.938l46.7998 -183.671l-160.144 101.215l-160.144 -101.215l46.8018 183.679l-142.658 120.93l185.933 12.2285l70.0674 176.021l70.0674 -176.02zM256 82.2764l112.464 -71.0801l-32.8291 128.839l100.689 85.0771l-131.124 8.60156
l-49.2002 123.6l-49.2002 -123.599l-130.971 -8.60254l100.534 -85.085l-32.8271 -128.831z" />
    <glyph glyph-name="064-termite" unicode="&#xf13f;" 
d="M160.003 72.002c0 -5.52344 -4.47656 -10 -10 -10s-10 4.47656 -10 10s4.47656 10 10 10s10 -4.47656 10 -10zM160.003 72.002zM41.0586 156.475c1.44141 2.88281 4.18359 4.89453 7.36719 5.40234l63.5107 10.1562l-47.4795 31.6484
c-1.68359 1.125 -2.98828 2.73047 -3.73828 4.6084l-32 79.9961c-2.05078 5.12891 0.445312 10.9492 5.57031 13c5.12891 2.05078 10.9492 -0.441406 13 -5.57031l30.8477 -77.1172l41.8662 -27.9092v21.335c-12.457 9.37891 -20 24.1992 -20 39.9766
c0 9.95312 2.89844 19.4648 8.28516 27.5742l-25.3555 25.3555c-1.875 1.875 -2.92871 4.41797 -2.92871 7.07031v101.854l-17.0703 17.0703c-3.90625 3.90625 -3.90625 10.2383 0 14.1445s10.2383 3.90625 14.1445 0l19.999 -20
c1.875 -1.875 2.92969 -4.41797 2.92969 -7.07031v-101.854l22.4219 -22.4258c2.63672 1.75 5.41797 3.23438 8.31641 4.44531l-10.2266 30.6719c-1.74609 5.24219 1.08203 10.9062 6.32422 12.6523c5.23828 1.74609 10.9023 -1.08594 12.6484 -6.32422l10.5117 -31.5312
l10.5156 31.5312c1.74609 5.23828 7.40625 8.07031 12.6484 6.32422c5.23828 -1.74609 8.07031 -7.41016 6.32422 -12.6523l-10.2266 -30.6719c2.89453 -1.21094 5.67969 -2.69531 8.3125 -4.44531l22.4258 22.4258v101.854c0 2.65234 1.05469 5.19531 2.92969 7.07031
l20 20c3.90625 3.90625 10.2383 3.90625 14.1406 0c3.90527 -3.90625 3.90527 -10.2383 0 -14.1406l-17.0703 -17.0742v-101.854c0 -2.65234 -1.05469 -5.19531 -2.92969 -7.07031l-25.3516 -25.3555c5.38672 -8.10938 8.28125 -17.6211 8.28125 -27.5742
c0 -15.7773 -7.54297 -30.6016 -20 -39.9805v-21.335l41.8711 27.9131l30.8428 77.1172c2.05078 5.125 7.87109 7.62109 13 5.57031s7.62109 -7.87109 5.57031 -13l-31.999 -80c-0.75 -1.87402 -2.05469 -3.4834 -3.73828 -4.60449l-47.4766 -31.6523l63.5068 -10.1523
c3.18359 -0.507812 5.92578 -2.51953 7.36719 -5.40234l40 -80c2.46875 -4.9375 0.46875 -10.9453 -4.47266 -13.4141c-4.9375 -2.46875 -10.9453 -0.472656 -13.418 4.46875l-37.7031 75.4102l-49.3896 7.89453c5.23047 -8.41406 9.92188 -18.3281 13.8711 -29.3906
l48.6865 -41.8555c2.21094 -1.90234 3.48047 -4.67188 3.48047 -7.58594v-83.6357l18.9453 -37.8867c2.46875 -4.94141 0.464844 -10.9492 -4.47266 -13.418c-4.94141 -2.46875 -10.9453 -0.46875 -13.418 4.47266l-20 40
c-0.695312 1.38672 -1.05371 2.91797 -1.05371 4.46875v81.4092l-23.2109 19.957c2.09766 -11.8867 3.21094 -23.8867 3.21094 -35.3672c0 -66.3545 -36.1602 -89.999 -70 -89.999s-69.999 23.6445 -69.999 89.999c0 11.4805 1.1123 23.4805 3.20996 35.3711
l-23.21 -19.9609v-81.4092c0 -1.55469 -0.363281 -3.08594 -1.05469 -4.47266l-20 -40c-2.46875 -4.92969 -8.46875 -6.94531 -13.418 -4.47266c-4.94141 2.46875 -6.94141 8.47656 -4.47266 13.418l18.9453 37.8867v83.6396c0 2.91406 1.26953 5.67969 3.48047 7.58203
l48.6865 41.8711c3.94922 11.0547 8.64062 20.9648 13.8672 29.3789l-49.3857 -7.89453l-37.7031 -75.4102c-2.46875 -4.93359 -8.47266 -6.94141 -13.418 -4.47266c-4.94141 2.47266 -6.94141 8.47656 -4.47266 13.418zM150.003 202.002
c-3.37109 0 -6.72266 0.347656 -10 1.01562v-31.0156c0 -5.53125 4.49219 -10 10 -10c5.39844 0 10 4.36328 10 10v31.0156c-3.28125 -0.667969 -6.63281 -1.01562 -10 -1.01562zM150.003 -17.9971c36.5039 0 50 33.3164 50 69.999
c0 31.0703 -10.1016 74.4609 -29.8711 97.8125c-2.9375 -2.65625 -6.38281 -4.71875 -10.1289 -6.05859v-31.7539c0 -5.52344 -4.47656 -10 -10 -10s-10 4.47656 -10 10v31.7031c-3.72266 1.31641 -7.17188 3.36719 -10.1562 6.08203
c-19.8086 -23.418 -29.8438 -67.0156 -29.8438 -97.7852c0 -36.6982 13.5039 -69.999 50 -69.999zM150.003 222.001c16.8164 0 30 13.7148 30 30c0 16.5664 -13.457 30 -30 30c-16.5703 0 -30 -13.4531 -30 -30c0 -16.2891 13.1875 -30 30 -30zM150.003 222.001z" />
    <glyph glyph-name="044-download" unicode="&#xf12b;" 
d="M422 146h90v-210h-512v210h90v-120h332v120zM286 238h60l-90 -135l-90 135h60v210h60v-210z" />
    <glyph glyph-name="003-right-arrow" unicode="&#xf102;" 
d="M336 192l-208 208v48l256 -256l-256 -256v48z" />
    <glyph glyph-name="009-null" unicode="&#xf108;" 
d="M109.751 212.073v-38.4111h128.049v-201.124h-237.8v201.124c0 151.771 36.6162 237.82 164.606 237.82v-122.568c-54.8555 0 -54.8555 -10.9824 -54.8555 -76.8408zM384.049 173.662h127.951v-201.124h-237.682v201.124c0 151.771 36.5967 237.82 164.587 237.82
v-122.568c-54.8564 0 -54.8564 -10.9824 -54.8564 -76.8408v-38.4111z" />
    <glyph glyph-name="037-clock-1" unicode="&#xf124;" 
d="M256.002 448c141.156 0 255.998 -114.842 255.998 -256s-114.842 -256 -255.998 -256c-141.159 0 -256.002 114.842 -256.002 256s114.843 256 256.002 256zM294.788 176.485v131.848c0 12.8525 -10.4199 23.2734 -23.2734 23.2734
c-12.8525 0 -23.2725 -10.4209 -23.2725 -23.2734v-108.575h-62.0312c-12.8525 0 -23.2725 -10.4199 -23.2725 -23.2725c0 -12.8535 10.4199 -23.2734 23.2725 -23.2734h85.3037c12.8535 0 23.2734 10.4199 23.2734 23.2734z" />
    <glyph glyph-name="046-menu" unicode="&#xf12d;" horiz-adv-x="511" 
d="M301.254 429.255c24.9941 -24.9932 24.9941 -65.5156 0 -90.5098c-24.9922 -24.9932 -65.5156 -24.9932 -90.5078 0c-24.9941 24.9941 -24.9941 65.5166 0 90.5098c24.9922 24.9941 65.5137 24.9941 90.5078 0zM301.254 237.254
c24.9941 -24.9932 24.9941 -65.5156 0 -90.5088c-24.9922 -24.9941 -65.5156 -24.9941 -90.5078 0c-24.9941 24.9932 -24.9941 65.5156 0 90.5088c24.9922 24.9941 65.5137 24.9941 90.5078 0zM301.254 45.2559c24.9941 -24.9941 24.9941 -65.5166 0 -90.5098
c-24.9922 -24.9941 -65.5156 -24.9941 -90.5078 0c-24.9941 24.9932 -24.9941 65.5156 0 90.5098c24.9922 24.9932 65.5137 24.9932 90.5078 0z" />
    <glyph glyph-name="017-gps" unicode="&#xf110;" 
d="M187.732 448c103.634 -0.116211 187.616 -84.0996 187.733 -187.732c0 -100.871 -173.754 -312.225 -181.154 -321.17c-1.62012 -1.96289 -4.0332 -3.09668 -6.5791 -3.09668s-4.95801 1.13379 -6.5791 3.09668c-7.39551 8.94531 -181.153 220.299 -181.153 321.17
c0.116211 103.633 84.0996 187.616 187.732 187.732zM187.732 -41.8984c32.1133 40.083 170.667 217.949 170.667 302.166c0 94.2578 -76.4082 170.666 -170.667 170.666c-94.2539 0 -170.666 -76.4082 -170.666 -170.666c0 -84.2168 138.559 -262.083 170.666 -302.166z
M187.732 -41.8984zM187.732 405.333c80.084 -0.0869141 144.979 -64.9873 145.066 -145.065c0 -80.1172 -64.9453 -145.066 -145.066 -145.066c-80.1162 0 -145.065 64.9492 -145.065 145.066c0 80.1162 64.9492 145.065 145.065 145.065zM187.732 132.268
c70.6582 0.0791016 127.921 57.3418 128 128c0 70.6914 -57.3086 127.999 -128 127.999s-127.999 -57.3076 -127.999 -127.999s57.3076 -128 127.999 -128zM187.732 132.268zM295.595 275.363c2.7666 -2.30078 3.79199 -6.08398 2.57129 -9.4668
c-1.22559 -3.37891 -4.4375 -5.63379 -8.0332 -5.62891h-25.6006v-76.7998c0 -4.71289 -3.82031 -8.5332 -8.5332 -8.5332h-51.1992c-4.71289 0 -8.5332 3.82031 -8.5332 8.5332v51.1992h-17.125l-0.367188 -51.2578c-0.0332031 -4.69141 -3.8457 -8.47461 -8.5332 -8.47461
h-50.7744c-4.71289 0 -8.53418 3.82031 -8.53418 8.5332v76.7998h-25.5996c-3.5957 -0.00488281 -6.80859 2.25 -8.0293 5.62891c-1.22461 3.38281 -0.195312 7.16602 2.56738 9.4668l102.399 85.333c3.16602 2.63281 7.7627 2.63281 10.9248 0zM255.999 277.334h10.5674
l-78.834 65.708l-78.8281 -65.708h10.5625c4.71191 0 8.5332 -3.82129 8.5332 -8.5332v-76.7998h33.7744l0.358398 51.2578c0.0332031 4.69141 3.8457 8.47461 8.5332 8.47461h34.1338c4.71191 0 8.5332 -3.82031 8.5332 -8.5332v-51.1992h34.1328v76.7998
c0 4.71191 3.82129 8.5332 8.5332 8.5332zM255.999 277.334z" />
    <glyph glyph-name="052-magnifying-glass" unicode="&#xf133;" 
d="M507.516 -37.8887c5.90332 -5.90332 5.90332 -15.667 0 -21.5703c-2.95117 -3.06543 -6.9248 -4.54102 -10.7852 -4.54102c-3.85938 0 -7.83301 1.58984 -10.7842 4.54102l-124.425 124.424c-38.3711 -33.376 -88.4355 -53.584 -143.155 -53.584
c-120.337 0 -218.31 97.9727 -218.31 218.31s97.8594 218.31 218.31 218.31c120.337 0 218.31 -97.8594 218.31 -218.31c0 -54.7197 -20.207 -104.784 -53.584 -143.155zM30.5947 229.69c0 -103.535 84.2363 -187.771 187.658 -187.771
c103.535 0 187.657 84.3496 187.657 187.771s-84.1221 187.657 -187.657 187.657c-103.422 0 -187.658 -84.1221 -187.658 -187.657z" />
    <glyph glyph-name="011-share" unicode="&#xf10a;" 
d="M422.399 140.8c49.4004 0 89.6006 -40.1992 89.6016 -89.5986c0 -49.4004 -40.2002 -89.6006 -89.6006 -89.6006c-49.3994 0 -89.5996 40.2002 -89.5996 89.6006c0 2.31934 0.510742 4.5 0.686523 6.77637l-173.326 66.6631
c-16.4053 -21.1582 -41.7812 -35.041 -70.5605 -35.041c-49.4004 0 -89.6006 40.2002 -89.6006 89.6006s40.2002 89.6006 89.6006 89.6006c26.6924 0 50.4287 -11.9746 66.8604 -30.5596l177.61 81.9844c-0.59082 4.14453 -1.27148 8.26758 -1.27148 12.5742
c0 49.4004 40.1982 89.5996 89.5986 89.5996s89.6006 -40.2002 89.6006 -89.6006s-40.2002 -89.6006 -89.6006 -89.6006c-26.6924 0 -50.4287 11.9756 -66.8604 30.5596l-177.61 -81.9844c0.589844 -4.14453 1.27148 -8.26758 1.27148 -12.5742
c0 -2.31934 -0.510742 -4.5 -0.686523 -6.77637l173.326 -66.6641c16.4053 21.1582 41.7812 35.041 70.5605 35.041z" />
    <glyph glyph-name="010-arrow" unicode="&#xf109;" 
d="M391.429 166.653l-220.152 -220.145c-14.0039 -14.0117 -36.71 -14.0117 -50.707 0c-13.999 13.998 -13.999 36.7031 0 50.7002l194.8 194.795l-194.794 194.788c-13.999 14.0039 -13.999 36.7061 0 50.7051c13.998 14.0039 36.7031 14.0039 50.707 0l220.152 -220.148
c6.99902 -7.00293 10.4941 -16.1709 10.4941 -25.3438c0 -9.17676 -3.50195 -18.3516 -10.5 -25.3516z" />
    <glyph glyph-name="049-pin" unicode="&#xf130;" 
d="M256 448c105.875 0 192 -86.1348 192 -192c0 -141.646 -177.146 -310 -184.687 -317.104c-2.06348 -1.92773 -4.68848 -2.89648 -7.31348 -2.89648s-5.25 0.96875 -7.31152 2.89648c-7.54199 7.10352 -184.688 175.457 -184.688 317.104c0 105.865 86.125 192 192 192z
M256 149.333c58.8135 0 106.667 47.8555 106.667 106.667s-47.8555 106.667 -106.667 106.667s-106.667 -47.8535 -106.667 -106.667s47.8535 -106.667 106.667 -106.667z" />
    <glyph glyph-name="057-fly" unicode="&#xf138;" 
d="M15.0029 267.997c-8.28418 0 -14.999 6.71289 -14.999 14.9971s6.71582 15 15 15h60.999c2.3291 0 4.625 -0.542969 6.70801 -1.58398l56.832 -28.416h52.0342c0.97168 4.98926 1.78027 8.26367 3.07715 12.7354c-2.69629 2.62012 6.25098 -7.15918 -97.9482 110.142
l-57.4102 28.7051c-7.41016 3.70508 -10.4131 12.7148 -6.70801 20.125c3.7041 7.40918 12.7139 10.4131 20.123 6.70801l60 -30c1.70996 -0.854492 3.24023 -2.02832 4.50977 -3.45898l69.4092 -78.1963c7.68164 13.8457 22.4473 23.2402 39.3711 23.2402
c5.25977 0 10.3057 -0.915039 15 -2.58008v47.5791c0 8.28418 6.71582 15 15 15s15 -6.71582 15 -15v-47.5791c4.69434 1.66504 9.74121 2.58008 15 2.58008c16.9238 0 31.6895 -9.39453 39.3711 -23.2402l69.209 77.9717
c0.0166016 0.0195312 0.0341797 0.0390625 0.0517578 0.0576172c3.50195 3.49707 4.30273 3.33789 4.86523 3.73047c0.0205078 0.00976562 59.793 29.8965 59.793 29.8965c7.41016 3.70605 16.4189 0.702148 20.123 -6.70801
c3.70508 -7.41016 0.702148 -16.4199 -6.70801 -20.125l-57.4111 -28.7051c-103.366 -116.363 -95.2051 -107.476 -97.9443 -110.137c1.22266 -4.21875 2.23633 -8.46973 3.06836 -12.7393h52.04l56.832 28.416c2.08301 1.04199 4.37891 1.58398 6.70801 1.58398h60.999
c8.28418 0 15 -6.71582 15 -15s-6.71582 -15 -15 -15h-57.458l-56.833 -28.417c-2.08203 -1.04102 -4.37891 -1.58301 -6.70703 -1.58301h-52.8896c-0.00390625 -0.293945 -0.0107422 -0.586914 -0.0175781 -0.880859l3.29004 -3.29004
c0.0136719 -0.0126953 0.0263672 -0.0253906 0.0390625 -0.0390625c13.8955 -14.0039 18.0244 -17.7285 25.2793 -25.7891h84.2969c8.28418 0 15 -6.71582 15 -15v-50.6602l52.6191 -25.8789c7.43359 -3.65625 10.4961 -12.6455 6.83984 -20.0801
c-3.62402 -7.37109 -12.583 -10.5254 -20.0801 -6.83984l-60.999 30c-5.12988 2.52246 -8.37988 7.74219 -8.37988 13.46v44.999h-46.0078c29.6055 -44.3438 46.0078 -97.5889 46.0078 -151.998c0 -49.626 -40.373 -89.999 -89.999 -89.999
c-31.2705 0 -58.8623 16.0342 -74.999 40.3086c-16.1367 -24.2744 -43.7285 -40.3086 -74.999 -40.3086c-49.626 0 -89.999 40.373 -89.999 89.999c0 54.4092 16.4023 107.654 46.0078 152.008h-46.0078v-45.0088c0 -5.71777 -3.25 -10.9375 -8.37988 -13.46l-60.999 -30
c-7.46875 -3.67383 -16.4434 -0.556641 -20.0801 6.83984c-3.65625 7.43457 -0.59375 16.4238 6.83984 20.0801l52.6191 25.8789v50.6602c0 8.28418 6.71582 15 15 15h84.2979c7.25586 8.06348 11.3945 11.7969 25.2773 25.7881
c0.0136719 0.0146484 3.30859 3.30957 3.30859 3.30957c-0.00585938 0.300781 -0.0205078 0.601562 -0.0253906 0.902344h-52.8594c-2.32812 0 -4.625 0.541992 -6.70703 1.58301l-56.833 28.417h-57.458zM256 154.212c1.39746 1.85938 26.8184 22.5566 34.8516 62.707
c-22.6465 6.88379 -47.0049 6.88867 -69.6533 0.0146484c8.07031 -40.1904 33.4609 -60.9355 34.8018 -62.7217zM317.645 200.14c-12.8984 -46.0068 -42.4336 -68.1348 -46.6445 -73.3535v-100.786c0 -33.084 26.915 -59.999 59.999 -59.999s59.999 26.915 59.999 59.999
c0 110.926 -71.9307 172.004 -73.3535 174.14zM286 327.996c-8.27148 0 -15 -6.72852 -15 -14.999c0 -8.27148 6.72852 -15 15 -15c8.21289 0 14.999 6.65039 14.999 15c0 8.27051 -6.72852 14.999 -14.999 14.999zM256 279.492
c-7.9668 -7.14258 -18.4824 -11.4951 -30 -11.4951c-1.23438 0 -2.46191 0.0664062 -3.68262 0.166992c-0.0195312 -0.0800781 -0.0429688 -0.160156 -0.0625 -0.240234c-1.67285 -6.75879 -2.69824 -13.6025 -3.13184 -20.4482
c24.165 6.12012 49.6104 6.11816 73.7754 -0.00488281c-0.447266 6.93066 -1.51562 13.8555 -3.22266 20.6934c-1.21875 -0.100586 -2.44434 -0.166992 -3.67578 -0.166992c-11.5176 0 -22.0322 4.35352 -30 11.4951zM226 327.996
c-8.27051 0 -14.999 -6.72852 -14.999 -14.999c0 -8.36035 6.79785 -15 14.999 -15c8.27148 0 15 6.72852 15 15c0 8.27051 -6.72852 14.999 -15 14.999zM194.315 200.1l-3.46191 -3.46289c-44.3926 -44.3916 -69.8516 -106.586 -69.8516 -170.637
c0 -33.084 26.915 -59.999 59.999 -59.999s59.999 26.915 59.999 59.999v100.786c-4.21289 5.18555 -33.8574 27.5635 -46.6846 73.3135z" />
    <glyph glyph-name="023-send" unicode="&#xf116;" 
d="M256 448c141.385 0 256 -114.615 256 -256s-114.615 -256 -256 -256s-256 114.615 -256 256s114.615 256 256 256zM256 -32c123.712 0 224 100.288 224 224s-100.288 224 -224 224s-224 -100.288 -224 -224s100.288 -224 224 -224zM219.2 331.2l128 -128
c6.2041 -6.24121 6.2041 -16.3193 0 -22.5605l-127.84 -128l-22.5605 22.5605l116.641 116.8l-116.801 116.64z" />
    <glyph glyph-name="019-long-arrow-pointing-to-the-right" unicode="&#xf112;" 
d="M509.034 199.68c1.97461 -1.97461 2.96582 -4.24316 2.96582 -6.80469c0 -2.76758 -0.984375 -5.13379 -2.95996 -7.1084l-113.774 -104.896c-3.16113 -2.75977 -6.61719 -3.35938 -10.374 -1.77246c-3.74805 1.77246 -5.63281 4.63477 -5.63281 8.59082v66.3701
h-369.778c-2.7627 0 -5.03516 0.886719 -6.81543 2.66406c-1.77734 1.77441 -2.66504 4.04688 -2.66504 6.81055v56.8877c0 2.76465 0.891602 5.03711 2.66602 6.81445c1.77539 1.77734 4.04883 2.66504 6.81543 2.66504h369.774v66.3701
c0 4.15039 1.88281 7.0127 5.63281 8.5957c3.75293 1.58008 7.20898 1.08594 10.3701 -1.48145z" />
    <glyph glyph-name="053-settings" unicode="&#xf134;" 
d="M512 289.916c0 -55.1172 -31.1611 -103.086 -76.7852 -127.237v-108.367h7.21191c8.43555 0 16.1191 -4.28418 20.5547 -11.46c4.43457 -7.17676 4.83008 -15.9658 1.05664 -23.5098l-15.5869 -31.1787c-11.7041 -23.4053 -35.2305 -37.9453 -61.3984 -37.9453h-307.493
c-26.1699 0 -49.6953 14.54 -61.3984 37.9453l-15.5889 31.1797c-3.77051 7.54395 -3.375 16.332 1.05859 23.5088c4.43457 7.17578 12.1182 11.46 20.5537 11.46h7.21289v248.044h193.414c6.32812 73.5254 68.1855 131.427 143.323 131.427
c79.3281 0 143.865 -64.5371 143.865 -143.866zM368.135 403.74c-62.7637 0 -113.825 -51.0615 -113.825 -113.824c0 -62.7637 51.0615 -113.825 113.825 -113.825c62.7627 0 113.823 51.0615 113.823 113.825c0 62.7627 -51.0605 113.824 -113.823 113.824z
M421.581 1.59863l11.334 22.6709h-399.219l11.3359 -22.6719c6.58105 -13.1621 19.8105 -21.3379 34.5273 -21.3379h307.494c14.7158 0 27.9453 8.17578 34.5273 21.3389zM405.173 54.3115h-0.000976562v96.5801c-11.8223 -3.15234 -24.2354 -4.84277 -37.0381 -4.84277
c-73.3701 0 -134.08 55.209 -142.788 126.265h-163.906v-218.002h343.733zM312.907 255.931c-3.57227 5.78418 -6.25195 12.1699 -7.87012 18.9629h-19.5801v30.042h19.5801c1.61816 6.7959 4.29785 13.1807 7.87012 18.9648l-13.8564 13.8555l21.2422 21.2432
l13.8564 -13.8564c5.7832 3.57129 12.1689 6.25098 18.9629 7.86914v19.5811h30.042v-19.582c6.79492 -1.61914 13.1807 -4.29785 18.9629 -7.86914l13.8564 13.8564l21.2422 -21.2432l-13.8555 -13.8564c3.57129 -5.78223 6.25098 -12.168 7.86816 -18.9629h19.582v-30.042
h-19.582c-1.61719 -6.79395 -4.29688 -13.1787 -7.86816 -18.9629l13.8555 -13.8564l-21.2422 -21.2422l-13.8564 13.8564c-5.7832 -3.57227 -12.168 -6.25195 -18.9629 -7.86914v-19.5811h-30.042v19.5811c-6.79395 1.61719 -13.1787 4.29688 -18.9629 7.86914
l-13.8564 -13.8564l-21.2422 21.2422zM368.135 324.744c-19.2061 0 -34.8291 -15.625 -34.8291 -34.8281c0 -19.2041 15.623 -34.8281 34.8291 -34.8281c19.2031 0 34.8281 15.624 34.8281 34.8281c0 19.2031 -15.624 34.8281 -34.8281 34.8281z" />
    <glyph glyph-name="062-call" unicode="&#xf13d;" 
d="M470.917 111.931c22.6523 0 41.083 -18.4307 41.084 -41.083v-93.7637c0 -22.6533 -18.4307 -41.084 -41.084 -41.084c-259.666 0 -470.917 211.249 -470.917 470.916c0 22.6533 18.4307 41.084 41.084 41.084h94.0264c22.6533 0 41.084 -18.4307 41.083 -41.085
c0 -31.3604 4.91699 -62.124 14.5977 -91.4443c4.70898 -15 0.77832 -30.9863 -10.1807 -41.9307l-42.1797 -56.0693c35.1523 -66.2627 76.2773 -107.375 143.041 -143.014l57.5693 43.459c8.72266 8.95898 26.292 13.4307 40.584 8.55566
c29.167 -9.63867 59.9453 -14.541 91.292 -14.541z" />
    <glyph glyph-name="028-search-1" unicode="&#xf11b;" 
d="M495.643 -18.3506c10.3086 -10.7227 9.9668 -27.8174 -0.746094 -38.127c-5.04199 -4.85352 -11.6846 -7.52246 -18.6855 -7.52246c-7.39746 0 -14.2998 2.93945 -19.4316 8.26855l-122.783 127.699c-34.8633 -24.501 -75.6416 -37.4072 -118.433 -37.4072
c-113.983 0 -206.72 92.7363 -206.72 206.72s92.7363 206.72 206.72 206.72s206.72 -92.7363 206.72 -206.72c0 -48.7861 -17.166 -95.6484 -48.498 -132.894zM215.563 394.073c-84.252 0 -152.793 -68.541 -152.793 -152.793s68.541 -152.793 152.793 -152.793
s152.793 68.541 152.793 152.793s-68.541 152.793 -152.793 152.793z" />
    <glyph glyph-name="007-clock" unicode="&#xf106;" 
d="M276 -4v-40c0 -11.0459 -8.9541 -20 -20 -20c-11.0449 0 -20 8.9541 -20 20v40c0 11.0459 8.95508 20 20 20c11.0459 0 20 -8.9541 20 -20zM103.265 373.021l28.2852 -28.2842c7.81152 -7.81055 7.81152 -20.4746 0 -28.2842
c-7.81055 -7.81152 -20.4736 -7.81152 -28.2842 -0.000976562l-28.2842 28.2842c-7.81152 7.80957 -7.81152 20.4736 0 28.2832c7.80957 7.81152 20.4727 7.8125 28.2832 0.00195312zM408.735 67.5498l28.2832 -28.2842c7.81152 -7.80957 7.81152 -20.4736 0 -28.2842
c-7.81055 -7.81152 -20.4746 -7.80957 -28.2832 0l-28.2842 28.2832c-7.81152 7.81055 -7.81055 20.4746 0 28.2852c7.80957 7.81152 20.4727 7.81152 28.2842 0zM80 192c0 -11.0459 -8.9541 -20 -20 -20h-40c-11.0449 0 -20 8.9541 -20 20s8.95508 20 20 20h40
c11.0459 0 20 -8.9541 20 -20zM103.266 67.5498c7.81055 7.80859 20.4746 7.80957 28.2842 -0.000976562c7.81152 -7.80859 7.81152 -20.4727 0 -28.2842l-28.2852 -28.2832c-7.81055 -7.81152 -20.4736 -7.80957 -28.2832 0.000976562
c-7.81152 7.80859 -7.81152 20.4727 0 28.2832zM408.735 316.451c-7.81055 -7.81152 -20.4756 -7.80957 -28.2842 0c-7.81152 7.80957 -7.81152 20.4736 0 28.2852l28.2842 28.2832c7.80957 7.81152 20.4727 7.81055 28.2832 0
c7.81152 -7.80957 7.81152 -20.4736 0 -28.2842zM492 212c11.0459 0 20 -8.9541 20 -20s-8.9541 -20 -20 -20h-236c-11.0449 0 -20 8.9541 -20 20v236c0 11.0459 8.95508 20 20 20c11.0459 0 20 -8.9541 20 -20v-216h216z" />
    <glyph glyph-name="050-email-1" unicode="&#xf131;" 
d="M467 387c6.92871 0 13.418 -1.70508 19.2861 -4.51367l-179.887 -179.877s-0.00488281 -0.00195312 -0.00585938 -0.00390625c-0.000976562 -0.00292969 -0.00488281 -0.0078125 -0.00488281 -0.0078125l-51.3887 -49.3867l-229.279 229.279
c5.86719 2.80664 12.3525 4.50977 19.2793 4.50977h422zM507.496 361.272c2.80469 -5.86523 4.50391 -12.3496 4.50391 -19.2725v-300c0 -6.92676 -1.70312 -13.4121 -4.50977 -19.2793l-169.277 169.277zM4.50977 361.279l169.279 -169.279l-169.283 -169.274
c-2.80469 5.86523 -4.50586 12.3516 -4.50586 19.2744v300c0 6.92676 1.70312 13.4121 4.50977 19.2793zM317.002 170.787l169.277 -169.277c-5.86719 -2.80664 -12.3525 -4.50977 -19.2793 -4.50977h-422c-6.92871 0 -13.418 1.70508 -19.2861 4.51367l169.286 169.275
l49.3965 -49.3955c2.92871 -2.92969 6.76758 -4.39453 10.6045 -4.39453s7.6748 1.46484 10.6055 4.39453z" />
    <glyph glyph-name="048-left-arrow" unicode="&#xf12f;" 
d="M167.009 366.568c7.21777 7.21777 18.582 7.21777 25.7998 0c6.97461 -6.97461 6.97461 -18.582 0 -25.54l-130.82 -130.82h431.69c10.0625 0 18.3213 -7.99902 18.3213 -18.0615c0 -10.0635 -8.25879 -18.3223 -18.3213 -18.3223h-431.69l130.82 -130.576
c6.97461 -7.21875 6.97461 -18.8418 0 -25.7998c-7.21777 -7.21875 -18.582 -7.21875 -25.7998 0l-161.79 161.79c-6.97461 6.97461 -6.97461 18.582 0 25.54z" />
    <glyph glyph-name="029-cursor" unicode="&#xf11c;" 
d="M501.9 446.062c9.02832 -4.52344 12.6807 -15.5088 8.15723 -24.5381l-237.708 -475.413c-3.09766 -6.19922 -9.43457 -10.1143 -16.3652 -10.1113c-0.868164 -0.00195312 -1.73535 0.0585938 -2.5957 0.183594c-7.78027 1.12207 -13.9736 7.09473 -15.3779 14.8291
l-34.3213 188.684l-188.684 34.3213c-5.6543 1.03125 -10.4951 4.66309 -13.0674 9.80371c-4.51953 9.03125 -0.863281 20.0146 8.16797 24.5352l475.413 237.706v0c5.1543 2.58398 11.2256 2.58398 16.3809 0z" />
    <glyph glyph-name="033-right-quote" unicode="&#xf120;" 
d="M120 371c66.168 0 120 -53.832 120 -120c0 -135.148 -54.6797 -224.797 -57.0068 -228.547l-5.86719 -9.45312h-87.584l7.2168 25.4561c7.05273 24.8789 18.2412 69.832 18.2412 84.5439c0 3.59082 -0.107422 6.21484 -0.250977 8.11914
c-30.4707 1.31055 -58.917 13.9609 -80.375 35.8115c-22.166 22.5723 -34.374 52.4287 -34.374 84.0693c0 66.168 53.832 120 120 120zM154.189 53c12.9746 25.166 45.8105 98.6797 45.8105 198c0 44.1123 -35.8877 80 -80 80s-80 -35.8877 -80 -80
c0 -43.2627 35.1758 -79.1406 78.4131 -79.9785l0.873047 -0.0224609c17.542 -0.0957031 26.0938 -9.10547 30.1826 -16.6689c4.59082 -8.49219 5.53125 -18.666 5.53125 -31.3301c0 -15.959 -7.19434 -47.416 -12.9414 -70h12.1309zM392 371c66.168 0 120 -53.832 120 -120
c0 -135.148 -54.6797 -224.797 -57.0068 -228.547l-5.86719 -9.45312h-87.584l7.2168 25.4561c7.05273 24.8789 18.2412 69.832 18.2412 84.5439c0 3.59082 -0.107422 6.21484 -0.250977 8.11914c-30.4707 1.31055 -58.917 13.9609 -80.375 35.8115
c-22.166 22.5723 -34.374 52.4287 -34.374 84.0693c0 66.168 53.832 120 120 120zM426.189 53c12.9746 25.166 45.8105 98.6797 45.8105 198c0 44.1123 -35.8877 80 -80 80s-80 -35.8877 -80 -80c0 -43.2627 35.1758 -79.1406 78.4131 -79.9785l0.873047 -0.0224609
c17.542 -0.0957031 26.0938 -9.10547 30.1826 -16.6689c4.59082 -8.49219 5.53125 -18.666 5.53125 -31.3301c0 -15.959 -7.19434 -47.416 -12.9414 -70h12.1309z" />
    <glyph glyph-name="032-checked" unicode="&#xf11f;" 
d="M0 175.665l47.665 48.002l127.666 -127.665l288.335 288l48.334 -47.666l-336.669 -336.337z" />
    <glyph glyph-name="020-talk" unicode="&#xf113;" 
d="M421.296 388.912c32.6309 0 59.1729 -26.543 59.1729 -59.1699v-184.956c0 -31.9414 -25.4277 -58.0469 -57.1025 -59.1406v-85.666l-123.067 85.6338h-181.223c-7.00879 0 -13.7275 1.24316 -19.9707 3.48926l-42.0029 -29.2227v85.6719
c-31.6748 1.08789 -57.1025 27.1992 -57.1025 59.1348v184.956c0 32.627 26.543 59.1699 59.1729 59.1699h302.223c32.6279 0 59.1738 -26.543 59.1738 -59.1699v-0.730469h0.726562zM28.1523 204.687c0 -17.1055 13.915 -31.0205 31.0205 -31.0205h26.082v-59.9004
l86.082 59.9004h190.059c17.1064 0 31.0205 13.915 31.0205 31.0205v184.956c0 17.1025 -13.9141 31.0176 -31.0205 31.0176h-302.223c-17.1055 0 -31.0205 -13.915 -31.0205 -31.0176v-184.956zM452.316 144.786v184.956c0 17.1025 -13.915 31.0176 -31.0205 31.0176
h-0.726562v-156.073c0 -32.6279 -26.5459 -59.1729 -59.1738 -59.1729h-181.226l-45.627 -31.748h174.589l86.082 -59.9004v59.9004h26.082c17.1055 0 31.0205 13.915 31.0205 31.0205zM452.316 144.786zM139.959 316.511h28.0352v-28.0361h-28.0352v28.0361z
M139.959 316.511zM196.264 316.511h28.0352v-28.0361h-28.0352v28.0361zM196.264 316.511zM252.569 315.886h28.0352v-28.0352h-28.0352v28.0352zM252.569 315.886z" />
    <glyph glyph-name="041-lawyer" unicode="&#xf128;" 
d="M511.854 -46.9082c0.605469 -4.30078 -0.682617 -8.65234 -3.53125 -11.9307c-2.84961 -3.27832 -6.97949 -5.16113 -11.3223 -5.16113h-482c-4.34277 0 -8.47266 1.88281 -11.3223 5.16113c-2.84863 3.27832 -4.13574 7.62988 -3.53027 11.9307l23.3027 165.423
c4.97852 35.3438 31.8965 63.501 66.9795 70.0674l93.9717 17.5859c-20.7607 19.2578 -33.7764 46.7539 -33.7764 77.2383v59.2188c0 58.1035 47.2715 105.375 105.375 105.375s105.375 -47.2715 105.375 -105.376v-59.2188c0 -30.4834 -13.0156 -57.9805 -33.7764 -77.2383
l93.9717 -17.585c35.084 -6.56641 62.001 -34.7227 66.9795 -70.0674zM270.543 71.5146l-14.543 58.9199l-14.543 -58.9189l14.543 -58.4199zM236.848 178.031h-21.9053l11 -44.1875zM286.059 133.845l11 44.1875h-21.9053zM256 418
c-41.5615 0 -75.375 -33.8135 -75.374 -75.376v-14.6094h8.47363c42.791 0 70.1484 12.999 83.6338 39.7393c2.84961 5.65234 8.93848 8.90723 15.2246 8.13281c6.28223 -0.772461 11.4033 -5.40625 12.7988 -11.582
c0.00195312 -0.0078125 2.44043 -9.94238 9.65332 -19.418c5.73926 -7.53906 12.6729 -12.5664 20.9648 -15.2002v12.9385c0 41.5615 -33.8135 75.375 -75.375 75.375zM180.625 283.406c0 -41.5625 33.8135 -75.375 75.375 -75.375s75.375 33.8125 75.375 75.375v15.4316
c-18.5098 3.40137 -34.123 13.2637 -45.7012 29.0352c-0.804688 1.09668 -1.56836 2.19336 -2.29199 3.28223c-20.9424 -22.0137 -52.5264 -33.1406 -94.2832 -33.1406h-8.47363v-14.6084zM53.1572 114.33l-20.8965 -148.33h204.547l-52.1973 209.686l-88.6611 -16.5918
c-22.415 -4.19434 -39.6113 -22.1836 -42.792 -44.7637zM275.192 -34h204.547l-20.8965 148.33c-3.18066 22.5801 -20.3779 40.5703 -42.792 44.7637l-88.6611 16.5918z" />
    <glyph glyph-name="063-tarantula" unicode="&#xf13e;" 
d="M357.533 270.856l154.467 -51.9844v-131.292h-30.1172v109.65l-128.573 43.2695c-0.786133 -3.78223 -1.78906 -7.48438 -2.99316 -11.0977l101.448 -73.9268v-216.856h-30.1172v201.536l-39.4268 28.7305c6.01953 -17.4268 9.30859 -35.4268 9.30859 -52.6943
c0 -69.6406 -52.8008 -127.172 -120.471 -134.688v-44.5117h-30.1172v44.5117c-67.6699 7.51562 -120.471 65.0469 -120.471 134.688c0 17.2676 3.29004 35.2676 9.30957 52.6943l-39.4277 -28.7305v-201.536h-30.1172v216.856l101.448 73.9268
c-1.20508 3.61328 -2.20801 7.31543 -2.99414 11.0977l-128.572 -43.2695v-109.649h-30.1172v131.291l154.468 51.9844l-17.4023 93.2256l-99.3604 56.7773l14.9424 26.1484l111.465 -63.6943l11.8828 -63.6602c9.12891 12.3672 21.0498 22.5566 34.8281 29.6182v54.5439
h30.1182v-44.8105c9.95508 1.52051 20.1738 1.51953 30.1172 0v44.8105h30.1182v-54.5439c13.7773 -7.06152 25.6982 -17.251 34.8281 -29.6182l11.8828 63.6602l111.465 63.6943l14.9434 -26.1484l-99.3604 -56.7773zM256 330.027
c-38.1963 0 -69.2705 -31.0742 -69.2705 -69.2705s31.0742 -69.2705 69.2705 -69.2705s69.2705 31.0742 69.2705 69.2705s-31.0742 69.2705 -69.2705 69.2705zM256 10.7803c58.124 0 105.412 47.2871 105.412 105.411c0 27.7168 -10.4258 57.8662 -27.9287 82.3984
c-18.2305 -22.6787 -46.1885 -37.2217 -77.4834 -37.2217s-59.2529 14.543 -77.4834 37.2217c-17.5029 -24.5322 -27.9287 -54.6826 -27.9287 -82.3984c0 -58.125 47.2871 -105.411 105.412 -105.411zM286.117 102.639h30.1182v-30.1172h-30.1182v30.1172zM195.765 132.757
h30.1182v-30.1182h-30.1182v30.1182z" />
    <glyph glyph-name="015-angle-arrow-pointing-to-right" unicode="&#xf10e;" 
d="M400.17 203.802c3.41797 -3.42676 5.11621 -7.36133 5.11621 -11.8076c0 -4.44531 -1.71094 -8.38184 -5.12891 -11.7998l-239.062 -239.066c-3.4209 -3.41895 -7.35645 -5.12793 -11.7998 -5.12793c-4.44531 0 -8.38086 1.70508 -11.7998 5.12793l-25.6494 25.6436
c-3.4248 3.41992 -5.12988 7.35547 -5.12988 11.8057c0 4.44043 1.70508 8.37598 5.12988 11.7949l201.619 201.622l-201.619 201.619c-3.4248 3.41992 -5.12988 7.34766 -5.12988 11.8008c0 4.45215 1.70508 8.37988 5.12988 11.7998l25.6475 25.6523
c3.41895 3.41797 7.35449 5.13379 11.7998 5.13379c4.44434 0 8.38086 -1.71582 11.8018 -5.13379z" />
    <glyph glyph-name="022-long-arrow-pointing-to-left" unicode="&#xf115;" 
d="M509.336 227.283c1.77539 -1.7793 2.66699 -4.05566 2.66406 -6.82129v-56.8926c0 -2.7666 -0.887695 -5.03613 -2.66309 -6.81152c-1.77441 -1.77246 -4.04883 -2.66406 -6.81152 -2.66406h-369.783v-66.3701c0 -4.15137 -1.87988 -7.01367 -5.62891 -8.59082
c-3.75488 -1.58691 -7.21191 -1.08691 -10.373 1.48145l-113.779 103.704c-1.97461 1.97461 -2.96094 4.24805 -2.96094 6.81543c0 2.76367 0.986328 5.13379 2.96094 7.1123l113.778 104.888c3.1582 2.7627 6.61523 3.35645 10.373 1.77832
c3.74902 -1.77832 5.62891 -4.64062 5.62891 -8.59375v-66.3701h369.776c2.76953 0 5.03516 -0.886719 6.81836 -2.66504z" />
    <glyph glyph-name="051-telephone" unicode="&#xf132;" 
d="M389.257 109.302c20.3496 -20.2432 40.6992 -40.4863 60.9424 -60.8359c16.9404 -17.0469 16.834 -37.9287 -0.212891 -55.1885c-11.5068 -11.6133 -23.7598 -22.6934 -34.627 -34.8398c-15.874 -17.792 -35.6914 -23.5459 -58.4912 -22.2666
c-33.1348 1.81055 -63.6064 12.7842 -93.0117 27.0615c-65.3105 31.749 -121.139 75.751 -167.911 131.366c-34.626 41.126 -63.1797 85.9805 -81.9307 136.481c-9.16309 24.3975 -15.6621 49.4355 -13.6377 75.9648c1.27832 16.3008 7.35156 30.2578 19.3906 41.6572
c12.998 12.3594 25.251 25.251 38.0361 37.8232c16.6201 16.4072 37.5029 16.4072 54.2295 0.106445c10.335 -10.1221 20.4561 -20.4561 30.6846 -30.6846c9.9082 -10.0146 19.8164 -19.8164 29.7256 -29.832c17.4727 -17.5791 17.4727 -38.0352 0.106445 -55.5078
c-12.4658 -12.5723 -24.8242 -25.1445 -37.5029 -37.3965c-3.30273 -3.30273 -3.62305 -5.9668 -1.91797 -10.0156c8.41699 -20.0293 20.4561 -37.8223 33.9873 -54.4424c27.2744 -33.4551 58.0654 -63.1797 94.8223 -86.2998
c7.88477 -4.90137 16.6211 -8.52344 24.8242 -12.998c4.15527 -2.34375 7.03223 -1.59863 10.4414 1.91797c12.4658 12.7852 25.1445 25.3564 37.8223 37.9287c16.6211 16.5137 37.5029 16.5137 54.2305 0zM368.907 194.216
c-4.79395 27.9141 -17.8994 53.2715 -37.9287 73.3018c-21.2021 21.2012 -48.0508 34.5195 -77.5635 38.6748l5.54004 39.5273c38.1426 -5.32715 72.7686 -22.5869 100.15 -49.9688c25.8896 -25.9961 42.9365 -58.7051 49.1162 -94.8223zM430.382 365.11
c43.043 -43.1504 71.2773 -97.4863 81.6113 -157.363l-39.3135 -6.71191c-8.84277 51.6729 -33.2412 98.6582 -70.4248 135.841c-39.207 39.1016 -88.8564 63.9258 -143.619 71.5967l5.54004 39.5273c63.3926 -8.84277 120.819 -37.5029 166.206 -82.8896z" />
    <glyph glyph-name="055-bee" unicode="&#xf136;" 
d="M510.365 334.751l1.63477 -1.63184l-21.208 -21.209l-1.63477 1.63477c-11.8799 11.8809 -31.209 11.8799 -43.0869 0l-11.9424 -11.9424c2.53418 -7.74219 3.87207 -15.9141 3.87207 -24.2959c0 -20.79 -8.0957 -40.3359 -22.7969 -55.0361
c-12.418 -12.4189 -28.2988 -20.1006 -45.4619 -22.1943l32.2988 -32.2979c22.2295 -22.2314 34.4727 -51.7871 34.4727 -83.2256s-12.2422 -60.9961 -34.4727 -83.2256l-31.7373 -31.7383l-92.5674 92.5674l-49.623 -49.623
c-22.6182 -22.6182 -51.2236 -37.5049 -82.7246 -43.0508c-9.00195 -1.58496 -18.0459 -2.37305 -27.0439 -2.37305c-18.9795 0 -37.7637 3.51562 -55.6084 10.418l-41.5273 -41.5273l-21.208 21.208l41.5215 41.5215c-10.1768 26.3057 -12.9668 54.665 -8.03906 82.6582
c5.5459 31.501 20.4316 60.1064 43.0498 82.7246l49.624 49.623l-92.5684 92.5674l31.7373 31.7373c22.2305 22.2305 51.7861 34.4727 83.2256 34.4727c31.4385 0 60.9951 -12.2422 83.2256 -34.4727l32.335 -32.3359c2.03809 16.6436 9.40918 32.751 22.1572 45.499
c14.7002 14.7012 34.2461 22.7969 55.0361 22.7969c8.38184 0 16.5537 -1.33789 24.2959 -3.87207l11.9424 11.9424c11.8799 11.8789 11.8799 31.208 0 43.0869l-1.63477 1.63477l21.209 21.208l1.63379 -1.63477c23.5742 -23.5732 23.5742 -61.9297 0 -85.5029
l-6.16504 -6.16602c1.2793 -1.12402 2.53906 -2.27734 3.75488 -3.49316l18.8623 -18.8623c1.21582 -1.21484 2.36914 -2.47559 3.49316 -3.75488l6.16602 6.16504c23.5723 23.5742 61.9297 23.5752 85.5029 0zM86.5332 316.831l-10.5293 -10.5283l91.1836 -91.1836
c12.1172 -12.1162 28.2266 -18.7891 45.3613 -18.7891s33.2441 6.67285 45.3613 18.7891l27.1846 27.1846l-74.5264 74.5273c-16.5654 16.5654 -38.5918 25.6885 -62.0176 25.6885c-23.4268 0 -45.4531 -9.12305 -62.0176 -25.6885zM212.55 166.337
c-24.4932 0 -47.5566 9.29297 -65.1689 26.207l-14.5703 -14.5703l109.163 -109.163l14.5889 14.5879c-22.3916 23.332 -30.4062 55.4316 -24.0439 85.0547c-6.48926 -1.39551 -13.1738 -2.11621 -19.9688 -2.11621zM70.6523 6.65234
c25.1572 -10.417 52.5801 -12.0625 78.1162 -5.70605l-83.8223 83.8223c-6.35742 -25.5371 -4.71191 -52.96 5.70605 -78.1162zM179.216 12.917c10.0049 5.53809 19.3506 12.4863 27.6885 20.8232l13.8623 13.8623l-109.163 109.163l-13.8623 -13.8613
c-8.33789 -8.33789 -15.2852 -17.6846 -20.8242 -27.6904zM406.521 84.5508c0 23.4277 -9.12305 45.4521 -25.6885 62.0176l-74.5273 74.5273l-27.1846 -27.1846c-25.0117 -25.0127 -25.0117 -65.7109 0 -90.7227l91.1836 -91.1846l10.5283 10.5293
c16.5654 16.5645 25.6885 38.5898 25.6885 62.0176zM307.468 262.35l18.8828 -18.8828c9.0332 -9.0293 21.043 -14.002 33.8164 -14.002c12.7793 0 24.793 4.97559 33.8281 14.0117c18.6533 18.6523 18.6533 49.0039 0 67.6562l-18.8623 18.8623
c-9.03613 9.03516 -21.0498 14.0117 -33.8281 14.0117s-24.792 -4.97559 -33.8281 -14.0117c-18.6484 -18.6494 -18.6514 -48.9922 -0.00878906 -67.6455z" />
    <glyph glyph-name="038-delivery-truck" unicode="&#xf125;" 
d="M418.587 111.306c25.6465 0 46.498 -21.0596 46.498 -46.915s-20.8516 -46.915 -46.498 -46.915c-12.5107 0 -24.292 4.90039 -33.3623 13.7617c-9.07031 8.9668 -13.9697 20.6426 -13.9697 33.1533s5.00391 24.1875 13.9697 33.1533
c8.9668 8.8623 20.8516 13.7617 33.3623 13.7617zM418.587 38.3271c14.1787 0 25.6465 11.6768 25.6465 26.0635c0 14.3877 -11.4678 26.0645 -25.6465 26.0645c-14.3877 0 -26.4814 -11.8857 -26.4814 -26.0645s12.0938 -26.0635 26.4814 -26.0635zM430.681 267.585
l31.3809 -28.2529c2.18945 -1.98047 3.44043 -4.7959 3.44043 -7.71484v-57.2363c0 -5.73438 -4.69141 -10.4258 -10.4258 -10.4258h-84.8643c-5.7334 0 -10.4258 4.69141 -10.4258 10.4258v85.4893c0 5.73438 4.69238 10.4258 10.4258 10.4258h53.4834
c2.60645 0 5.1084 -0.938477 6.98535 -2.71094zM444.65 184.807v42.2236l-25.0205 22.5186h-38.9922v-64.7422h64.0127zM163.994 111.306c25.6475 0 46.498 -21.0596 46.498 -46.915s-20.8506 -46.915 -46.498 -46.915c-12.5107 0 -24.291 4.90039 -33.3613 13.7617
c-9.07031 8.9668 -13.9707 20.6426 -13.9707 33.1533s5.00391 24.1875 13.9707 33.1533c8.96582 8.8623 20.8506 13.7617 33.3613 13.7617zM163.994 38.3271c14.1787 0 25.6475 11.6768 25.6475 26.0635c0 14.3877 -11.4688 26.0645 -25.6475 26.0645
c-14.3867 0 -26.4805 -11.8857 -26.4805 -26.0645s12.0938 -26.0635 26.4805 -26.0635zM94.4561 98.4824c5.7334 0 10.4248 -4.69141 10.4248 -10.4258c0 -5.7334 -4.69141 -10.4248 -10.4248 -10.4248h-31.3809c-5.73438 0 -10.4258 4.69141 -10.4258 10.4248v38.1582
c0 5.7334 4.69141 10.4258 10.4258 10.4258c5.7334 0 10.4248 -4.69238 10.4248 -10.4258v-27.7324h20.9561zM147.313 155.302c0 -5.83789 -4.69141 -10.4258 -10.4258 -10.4258h-126.462c-5.73438 0 -10.4258 4.69238 -10.4258 10.4258
c0 5.73438 4.69141 10.4258 10.4258 10.4258h126.462c5.73438 0 10.4258 -4.69141 10.4258 -10.4258zM31.5898 192.938c-5.73438 0 -10.4258 4.69141 -10.3213 10.5293c0 5.73438 4.69141 10.3213 10.4248 10.3213h0.104492l126.462 -0.729492
c5.73438 0 10.4258 -4.69141 10.3223 -10.5293c-0.104492 -5.73438 -4.7959 -10.3213 -10.5303 -10.3213zM52.8574 240.271c-5.7334 0 -10.4258 4.69141 -10.4258 10.4258c0 5.7334 4.69238 10.4248 10.4258 10.4248h126.463c5.7334 0 10.4248 -4.69141 10.4248 -10.4248
c0 -5.73438 -4.69141 -10.4258 -10.4248 -10.4258h-126.463zM508.143 254.345c2.39746 -1.98047 3.75293 -5.00391 3.85742 -8.13184l-0.833984 -158.052c0 -5.73438 -4.69141 -10.3213 -10.4258 -10.3213h-21.1641c-5.7334 0 -10.4248 4.69141 -10.4248 10.4258
s4.69141 10.4258 10.4248 10.4258h10.8428l0.729492 142.726l-67.9746 56.2988h-84.0303v-199.233h20.9561c5.7334 0 10.4258 -4.69141 10.4258 -10.4258c0 -5.7334 -4.69238 -10.4248 -10.4258 -10.4248h-127.297c-5.7334 0 -10.4248 4.69141 -10.4248 10.4248
c0 5.73438 4.69141 10.4258 10.4248 10.4258h85.4902v247.19h-244.793v-65.8896c0 -5.73438 -4.69141 -10.4258 -10.4248 -10.4258c-5.73438 0 -10.4258 4.69141 -10.4258 10.4258v76.3154c0 5.73438 4.69141 10.4258 10.4258 10.4258h265.539
c5.73438 0 10.4258 -4.69141 10.4258 -10.4258v-37.5322h87.7832c2.50195 0 4.7959 -0.833984 6.67188 -2.39746l74.6475 -61.8242v0z" />
    <glyph glyph-name="031-right-arrow-4" unicode="&#xf11e;" 
d="M292.571 411.429l219.429 -219.43l-219.429 -219.428l-54.8564 54.8564l127.999 128.002h-365.714v73.1416h365.715l-128 128.001z" />
    <glyph glyph-name="027-next" unicode="&#xf11a;" 
d="M512 192.002l-81.9404 -81.9424v65.8135h-430.06v32.2549h430.06v65.8125z" />
    <glyph glyph-name="042-apple" unicode="&#xf129;" 
d="M351.978 448c4.57617 -31.1035 -8.06348 -61.5674 -24.7676 -83.1035c-17.8555 -23.1357 -48.6719 -41.0234 -78.4951 -40.0957c-5.44043 29.792 8.51172 60.4473 25.4717 81.0879c18.5918 22.751 50.4951 40.2236 77.791 42.1113zM459.85 276.225
c-85.9199 -47.3916 -72 -170.847 14.8154 -203.902c-11.9355 -26.624 -17.6641 -38.4961 -33.0557 -62.0801c-21.4717 -32.8955 -51.7119 -73.8867 -89.2471 -74.1748c-33.3125 -0.352539 -41.8877 21.8232 -87.1035 21.5674
c-45.2158 -0.223633 -54.624 -21.9521 -88 -21.6318c-37.5039 0.320312 -66.1758 37.3115 -87.6475 70.208c-59.999 91.9355 -66.3359 199.87 -29.3115 257.278c26.3359 40.7676 67.8711 64.6074 106.879 64.6074c39.7119 0 64.7041 -21.9199 97.5996 -21.9199
c31.9043 0 51.3281 21.9844 97.2471 21.9844c34.7842 0 71.6162 -19.0723 97.8242 -51.9365z" />
    <glyph glyph-name="047-play-arrow" unicode="&#xf12e;" 
d="M54.8574 448l402.285 -255.999l-402.285 -256.001v512z" />
    <glyph glyph-name="040-interface" unicode="&#xf127;" 
d="M361 192c0 8.28418 6.71582 15 15 15s15 -6.71582 15 -15s-6.71582 -15 -15 -15s-15 6.71582 -15 15zM256 448c141.159 0 256 -114.841 256 -256s-114.841 -256 -256 -256s-256 114.841 -256 256s114.841 256 256 256zM136 147c24.8135 0 45 20.1865 45 45
s-20.1865 45 -45 45s-45 -20.1865 -45 -45s20.1865 -45 45 -45zM256 147c24.8135 0 45 20.1865 45 45s-20.1865 45 -45 45s-45 -20.1865 -45 -45s20.1865 -45 45 -45zM376 147c24.8135 0 45 20.1865 45 45s-20.1865 45 -45 45s-45 -20.1865 -45 -45s20.1865 -45 45 -45z
M241 192c0 8.28418 6.71582 15 15 15s15 -6.71582 15 -15s-6.71582 -15 -15 -15s-15 6.71582 -15 15zM121 192c0 8.28418 6.71582 15 15 15s15 -6.71582 15 -15s-6.71582 -15 -15 -15s-15 6.71582 -15 15z" />
    <glyph glyph-name="021-comment" unicode="&#xf114;" 
d="M85.333 230.698c-4.71875 0 -8.5332 3.82324 -8.5332 8.53418c0 4.70996 3.81445 8.5332 8.5332 8.5332h110.934c4.71875 0 8.5332 -3.82324 8.5332 -8.5332c0 -4.71094 -3.81445 -8.53418 -8.5332 -8.53418h-110.934zM307.2 196.565
c4.71875 0 8.5332 -3.82324 8.5332 -8.5332c0 -4.71094 -3.81445 -8.5332 -8.5332 -8.5332h-221.867c-4.71875 0 -8.5332 3.82227 -8.5332 8.5332c0 4.70996 3.81445 8.5332 8.5332 8.5332h221.867zM307.2 145.365c4.71875 0 8.5332 -3.82324 8.5332 -8.5332
s-3.81445 -8.5332 -8.5332 -8.5332h-221.867c-4.71875 0 -8.5332 3.82324 -8.5332 8.5332s3.81445 8.5332 8.5332 8.5332h221.867zM461.414 426.368c27.8955 -0.00878906 50.5859 -22.707 50.5859 -50.6025v-180.421c0 -27.8955 -22.6982 -50.5938 -50.6025 -50.5938
h-9.13086v-85.333c0 -3.52441 -2.16699 -6.69043 -5.46094 -7.96191c-0.999023 -0.383789 -2.04004 -0.572266 -3.07227 -0.572266c-2.35547 0 -4.66797 0.981445 -6.31445 2.79102l-44.8857 49.374v-0.964844c0 -27.8955 -22.6982 -50.5938 -50.6025 -50.5938
l-141.875 -0.580078l-82.8076 -91.0938c-1.64746 -1.80859 -3.95996 -2.79004 -6.31445 -2.79004c-1.0332 0 -2.07422 0.1875 -3.07227 0.571289c-3.29395 1.27148 -5.46094 4.4375 -5.46094 7.96191v85.333h-51.7979c-27.9043 0 -50.6025 22.6904 -50.6025 50.5947v180.402
c0 27.9043 22.6982 50.6035 50.6025 50.6035l68.8643 0.144531v43.7246c0 27.9043 22.6982 50.6035 50.6025 50.6035zM375.467 102.093v23.0488v157.363c0 18.4912 -15.0439 33.5361 -33.5361 33.5361l-213.914 -0.444336h-0.0166016v0l-77.3799 -0.162109
c-18.5088 0 -33.5537 -15.0439 -33.5537 -33.5361v-180.403c0 -18.4824 15.0449 -33.5273 33.5361 -33.5273h60.3311c4.71875 0 8.5332 -3.82227 8.5332 -8.5332v-71.7998l70.4854 77.543c1.60449 1.7666 3.89062 2.78125 6.28027 2.79004l145.664 0.597656
c18.5264 0 33.5703 15.0352 33.5703 33.5273zM494.934 195.362h0.0078125v180.411c0 18.4922 -15.0439 33.5361 -33.5352 33.5361h-0.0175781l-291.336 0.597656c-18.4756 0 -33.5195 -15.0439 -33.5195 -33.5361v-43.6904l205.381 0.417969
c27.9209 0 50.6191 -22.6982 50.6191 -50.6025v-154.061l42.667 -46.9336v71.7998c0 4.70996 3.81445 8.5332 8.5332 8.5332h17.6641c18.4912 0 33.5361 15.0352 33.5361 33.5273z" />
    <glyph glyph-name="002-search" unicode="&#xf101;" 
d="M495 -18.2002c8 -7.89941 8 -20.8994 0 -28.7998c-8 -8 -20.9004 -8 -28.9004 0l-117.8 117.7c-35.5996 -29.2002 -81.0996 -46.7002 -130.8 -46.7002c-114.1 0 -206.5 92.5 -206.5 206.5s92.4004 206.5 206.5 206.5c114 0 206.5 -92.5 206.5 -206.5
c0 -49.7002 -17.5996 -95.2998 -46.7998 -130.9zM217.5 65.0996c91.2002 0 165.5 74.2002 165.5 165.4s-74.2998 165.5 -165.5 165.5c-91.2998 0 -165.5 -74.2998 -165.5 -165.5s74.2002 -165.4 165.5 -165.4z" />
    <glyph glyph-name="018-long-right-arrow" unicode="&#xf111;" 
d="M32 160v64h352v64l96 -96l-96 -96v64h-352z" />
    <glyph glyph-name="026-right-arrow-3" unicode="&#xf119;" 
d="M371.578 332.422l140.422 -140.421l-140.422 -140.423l-22.8066 22.8076l101.487 101.486h-450.259v32.2549h450.259l-101.487 101.487z" />
    <glyph glyph-name="059-squirrel" unicode="&#xf13a;" 
d="M412.796 365.903c9.33496 -3.18164 18.2295 -7.56543 26.4385 -13.0312l72.7656 -47.7764v-8.0957c0 -41.4648 -34.543 -75 -76 -75c-13.5791 0 -25.9834 -6.875 -33.1807 -18.3896l-7.37012 -11.792c31.0117 -2.28711 55.5508 -28.2324 55.5508 -59.8184h-30
c0 16.542 -13.458 30 -30 30h-14.1865l-45.8135 -73.3018v-76.6982h75v-30h-211c-74.4395 0 -135 60.5605 -135 135v105c-33.084 0 -60 26.916 -60 60c0 49.626 40.374 90 90 90s90 -40.374 90 -90v-20.002c24.5791 19.6211 54.4912 32.3604 85.9434 36.3604
l47.9375 8.30176c5.90137 1.02246 10.8408 4.46484 13.874 9.20605c-15.749 7.0127 -26.7549 22.8115 -26.7549 41.1338v45l43.6855 -0.015625c11.2686 -0.515625 23.1953 -2.58398 34.0723 -14.1309c9.53125 -10.1162 20.9834 -17.5029 34.0381 -21.9502zM90 117
c0 -54.8008 42.2012 -99.9219 95.8105 -104.593c-42.0527 30.3594 -68.627 80.3975 -65.5713 136.79c1.58691 29.2988 11.9941 57.5947 29.7607 81.7119v51.0908c0 33.084 -26.916 60 -60 60s-60 -26.916 -60 -60c0 -16.542 13.458 -30 30 -30v30h30v-165zM436 252
c22.2803 0 41.4717 16.4551 45.3037 37.3613l-58.6631 38.5166c-6.05859 4.03906 -12.627 7.2793 -19.5205 9.62793c-17.7334 6.04297 -33.2764 16.0615 -46.1982 29.7764c-2.81445 2.98926 -5.30762 4.32031 -13.2793 4.71777h-12.6426v-15c0 -8.27148 6.72852 -15 15 -15
h15v-15c0 -24.6992 -17.6631 -45.6836 -42 -49.8994l-48.9756 -8.46484c-65.0166 -8.12793 -116.531 -60.1729 -119.829 -121.062c-4.08105 -75.3232 57.083 -135.574 129.209 -135.574h21.5957v90c0 33.084 -26.916 60 -60 60v30
c37.9189 0 70.4336 -23.5732 83.666 -56.833l52.7139 84.3428c12.7158 20.3438 34.6299 32.4902 58.6201 32.4902zM391 312h30v-30h-30v30z" />
    <glyph glyph-name="036-mail" unicode="&#xf123;" 
d="M20.2617 399.801h471.477l-235.737 -188.59zM265.37 180.288l246.63 197.304v-378.392c0 -8.28418 -6.71582 -15 -15 -15h-482c-8.28418 0 -15 6.71582 -15 15v378.392l246.631 -197.304c2.73828 -2.19043 6.05469 -3.28613 9.37012 -3.28613
c3.31445 0 6.63086 1.0957 9.36914 3.28613z" />
    <glyph glyph-name="030-calling" unicode="&#xf11d;" 
d="M335.448 271.448c0 19.501 15.8086 35.3105 35.3105 35.3105c19.501 0 35.3105 -15.8096 35.3105 -35.3105s-15.8096 -35.3105 -35.3105 -35.3105c-19.502 0 -35.3105 15.8096 -35.3105 35.3105zM441.379 271.448c0 19.501 15.8096 35.3105 35.3105 35.3105
c19.502 0 35.3105 -15.8096 35.3105 -35.3105s-15.8086 -35.3105 -35.3105 -35.3105c-19.501 0 -35.3105 15.8096 -35.3105 35.3105zM229.518 271.448c0 19.501 15.8086 35.3105 35.3096 35.3105c19.502 0 35.3105 -15.8096 35.3105 -35.3105
s-15.8086 -35.3105 -35.3105 -35.3105c-19.501 0 -35.3096 15.8096 -35.3096 35.3105zM212.012 148.012c48.8701 -48.8691 97.7393 -59.9033 117.319 -62.3926c5.41309 -0.696289 10.8428 1.16699 14.6885 5.04004l39.5303 39.5479
c5.81836 5.81152 14.8789 6.83691 21.8486 2.47168l97.7744 -62.9492c7.68945 -4.83301 10.458 -14.7119 6.39941 -22.8369l-47.6074 -101.085c-3.24219 -6.58496 -10.2383 -10.458 -17.54 -9.71094c-50.3438 5.29688 -174.019 27.2246 -295.574 148.789
c-121.556 121.565 -143.492 245.257 -148.789 295.574c-0.74707 7.30176 3.12598 14.2979 9.71094 17.541l101.084 47.6064c8.14355 4.07422 18.0488 1.28711 22.873 -6.43457l62.9668 -97.7744c4.36035 -6.97363 3.32812 -16.0352 -2.48926 -21.8486l-39.5479 -39.5303
c-3.87305 -3.8457 -5.73633 -9.27539 -5.04004 -14.6885c2.48926 -19.5801 13.5234 -68.4492 62.3926 -117.319z" />
    <glyph glyph-name="004-tick" unicode="&#xf103;" 
d="M242.115 157.05l209.962 230.455l27.7178 -25.2539l-235.755 -258.768l-128.522 122.177l25.8398 27.1787zM465.234 291.2c9.69434 -26.2822 14.7656 -54.3486 14.7656 -83.2002c0 -64.1045 -24.9639 -124.377 -70.2949 -169.705
c-45.3281 -45.3311 -105.601 -70.2949 -169.705 -70.2949s-124.377 24.9639 -169.705 70.2949c-45.3311 45.3281 -70.2949 105.601 -70.2949 169.705s24.9639 124.377 70.2949 169.705c45.3281 45.3311 105.601 70.2949 169.705 70.2949
c59.6748 0 116.019 -21.6445 160.09 -61.1982l-25.2803 -27.835c-35.833 32.0273 -83.083 51.5332 -134.81 51.5332c-111.656 0 -202.5 -90.8438 -202.5 -202.5s90.8438 -202.5 202.5 -202.5s202.5 90.8438 202.5 202.5c0 17.6104 -2.26172 34.7021 -6.50684 51.0029z
M465.234 291.2z" />
    <glyph glyph-name="039-zoom-in" unicode="&#xf126;" 
d="M496.64 23.04c20.4805 -20.4805 20.4805 -51.2002 0 -71.6797c-20.4795 -20.4805 -51.1992 -20.4805 -71.6797 0l-71.6797 71.6797c-35.8398 -23.04 -76.7998 -35.8398 -122.88 -35.8398c-128 0 -230.4 102.399 -230.4 230.399s102.4 230.4 230.4 230.4
s230.399 -102.4 230.399 -230.4c0 -46.0801 -12.7998 -87.04 -35.8398 -122.88zM230.4 38.4004c97.2793 0 179.199 79.3594 179.199 179.199c0 99.8408 -79.3594 179.2 -179.199 179.2c-99.8408 0 -179.2 -79.3594 -179.2 -179.2
c0 -99.8398 79.3594 -179.199 179.2 -179.199zM332.8 243.2c12.7998 0 25.6006 -10.2402 25.6006 -25.6006c0 -15.3594 -10.2402 -25.5996 -25.6006 -25.5996h-76.7998v-76.7998c0 -15.3604 -10.2402 -25.6006 -25.5996 -25.6006
c-15.3604 0 -25.6006 10.2402 -25.6006 25.6006v76.7998h-76.7998c-15.3604 0 -25.5996 10.2402 -25.5996 25.5996c0 15.3604 12.7998 25.6006 25.5996 25.6006h76.7998v76.7998c0 12.7998 10.2402 25.5996 25.6006 25.5996c15.3594 0 25.5996 -10.2393 25.5996 -25.5996
v-76.7998h76.7998z" />
    <glyph glyph-name="006-backward" unicode="&#xf105;" 
d="M510.155 33.3662c1.57812 -15.8252 1.95801 -28.0107 1.81738 -41.291c-0.0195312 -1.76562 -0.0195312 -1.76562 -0.0244141 -2.72461c0 -21.6738 -28.5762 -29.5352 -39.6611 -10.9102c-23.7646 39.9297 -50.7559 70.7842 -80.3252 93.5898
c-53.4561 41.2285 -109.11 53.1699 -157.318 48.3467v-109.694c0 -19.0039 -22.9775 -28.5215 -36.415 -15.084l-191.98 191.98c-8.33008 8.33008 -8.33008 21.8369 0 30.167l191.98 191.98c13.4375 13.4375 36.415 3.9209 36.415 -15.083v-85.4336
c120.58 -5.12793 226.8 -87.21 261.494 -204.243c7.21289 -24.3506 11.6973 -48.3389 14.0176 -71.6006zM418.017 105.812c15.5029 -11.9561 30.3066 -25.75 44.3418 -41.4521c-1.93164 9.41895 -4.29199 18.9258 -7.12402 28.4844
c-30.959 104.435 -129.089 176.25 -237.857 173.899c-1.7793 -0.0302734 -2.4668 -0.0458984 -3.33008 -0.0761719c-12.0625 -0.415039 -22.0664 9.25098 -22.0664 21.3193v55.1572l-140.482 -140.481l140.482 -140.484v76.4893c0 9.77246 6.64062 18.2949 16.1152 20.6846
c2.5957 0.654297 6.90723 1.5127 12.7568 2.33008c60.4229 8.45605 130.62 -4.54688 197.164 -55.8701z" />
    <glyph glyph-name="054-pesticide" unicode="&#xf135;" 
d="M445.357 275.857c27.2549 0 49.4287 -22.1738 49.4287 -49.4287v-206.57c0 -27.2559 -22.1738 -49.4297 -49.4287 -49.4297h-53.8574v-34.4287h-236.571v34.1846h-53.8564c-27.2549 0 -49.4297 22.1738 -49.4297 49.4287v56.4336
c-19.9424 6.36719 -34.4287 25.0684 -34.4287 47.0947v34.4297c0 22.0264 14.4863 40.7285 34.4287 47.0947v163.84l-34.3037 65.5918l26.584 13.9023l37.7197 -72.123v-171.211c19.9434 -6.36719 34.4297 -25.0684 34.4297 -47.0947v-34.4297
c0 -22.0264 -14.4863 -40.7275 -34.4297 -47.0947v-56.4336c0 -10.7129 8.7168 -19.4287 19.4297 -19.4287h53.8564v310.102h103.285v38.8555h-2.21387c-27.2549 0 -49.4287 22.1748 -49.4287 49.4297v49.4287h133.287v-49.4277
c0 -27.2549 -22.1748 -49.4297 -49.4297 -49.4297h-2.21484v-38.8564h103.286v-34.4287h53.8574zM236.571 398.571c0 -10.7129 8.71582 -19.4287 19.4287 -19.4297h34.4277c10.7129 0 19.4297 8.7168 19.4297 19.4297v19.4287h-73.2861v-19.4287zM47.2139 157.571v-34.4297
c0 -10.7129 8.71582 -19.4287 19.4287 -19.4287c10.7139 0 19.4297 8.71582 19.4297 19.4287v34.4297c0 10.7129 -8.71582 19.4287 -19.4297 19.4287c-10.7129 0 -19.4287 -8.71582 -19.4287 -19.4287zM361.5 34.8574v176.571h-176.571v-176.571h176.571zM361.5 280.286
h-176.571v-38.8574h176.571v38.8574zM184.929 -34h176.571v38.8574h-176.571v-38.8574zM464.786 19.8574v206.57c0 10.7129 -8.71582 19.4297 -19.4287 19.4297h-53.8574v-245.43h53.8574c10.7129 0 19.4287 8.71582 19.4287 19.4297zM272.423 73.7139
c-27.2549 0 -49.4287 22.1738 -49.4287 49.4287c0 27.2559 22.1738 49.4297 49.4287 49.4297s49.4277 -22.1738 49.4277 -49.4297c0 -27.2549 -22.1729 -49.4287 -49.4277 -49.4287zM272.423 142.571c-10.7129 0 -19.4287 -8.71582 -19.4287 -19.4297
c0 -10.7129 8.71582 -19.4287 19.4287 -19.4287s19.4277 8.71582 19.4277 19.4287c0 10.7139 -8.71484 19.4297 -19.4277 19.4297z" />
    <glyph glyph-name="056-mosquito" unicode="&#xf137;" 
d="M423.835 38.293l72.2109 -77.0293c5.66602 -6.04492 5.35938 -15.5371 -0.68457 -21.2021c-2.89551 -2.71289 -6.5791 -4.05664 -10.2559 -4.05664c-4.00195 0 -7.99414 1.5918 -10.9463 4.74121l-76.2656 81.3604c-2.60645 2.78027 -4.05664 6.44824 -4.05664 10.2588
v51.4873l-89.626 42.2939l1.28516 -29.043c0.640625 -0.28418 1.27441 -0.598633 1.88574 -0.979492l43.165 -26.9053c4.39453 -2.73828 7.06543 -7.5498 7.06543 -12.7285v-33.6016l40.8926 -63.7891c4.4707 -6.97461 2.44141 -16.2529 -4.53223 -20.7236
c-2.50586 -1.60645 -5.31055 -2.37402 -8.08203 -2.37402c-4.94043 0 -9.77734 2.43848 -12.6416 6.90625l-43.2646 67.4883c-1.54883 2.41602 -2.37207 5.22559 -2.37207 8.0957v29.6719l-22.2852 13.8906c-5.78223 -19.8145 -29.5264 -40.3223 -49.3252 -40.3223
c-15.1416 0 -28.5371 11.2617 -33.5947 16.1035c-4.14648 3.97168 -12.7363 13.2559 -15.8721 24.5596l-23.6494 -14.7402v-29.6719c0 -2.80566 -0.787109 -5.55469 -2.27051 -7.93652l-41.7607 -66.9785c-2.84375 -4.56152 -7.7373 -7.06641 -12.7432 -7.06641
c-2.70996 0 -5.45215 0.733398 -7.92188 2.27344c-7.0293 4.38281 -9.1748 13.6348 -4.79199 20.6641l39.4883 63.3369v33.7051c0 5.17773 2.66992 9.99023 7.06543 12.7285l46.584 29.0352l1.26562 28.6055l-91.1396 -43.0088v-51.4863
c0 -3.77637 -1.42285 -7.41309 -3.98535 -10.1836l-74.7617 -80.8525c-2.95605 -3.19727 -6.98242 -4.81641 -11.0186 -4.81641c-3.64258 0 -7.29395 1.31836 -10.1797 3.98633c-6.08301 5.625 -6.4541 15.1143 -0.830078 21.1963l70.7744 76.541v55.1221
c0 5.80469 3.34961 11.0869 8.59961 13.5654l113.779 53.6895c0.0859375 0.0410156 0.173828 0.0693359 0.260742 0.108398l0.955078 21.583c-19.7559 -10.7969 -42.0107 -16.582 -64.9141 -16.582h-78.6758c-36.7256 0 -66.6035 29.8779 -66.6035 66.6035
c0 15.9502 12.9766 28.9258 28.9268 28.9258h114.082c25.0547 0 49.0439 -6.91406 69.7998 -19.8301l0.766602 17.3252c-1.51953 0.567383 -2.97559 1.38574 -4.29785 2.47656l-53.3096 44.0049c-3.45215 2.84863 -5.45117 7.09082 -5.45117 11.5684v52.251
l-45.6172 54.8711c-5.2959 6.37012 -4.42578 15.8271 1.94434 21.123c6.37109 5.29785 15.8262 4.42676 21.124 -1.94434l49.085 -59.0371c2.23926 -2.69434 3.46582 -6.08691 3.46582 -9.59082v-50.6035l35.3711 -29.1963c1.39062 5.64941 4.04785 10.834 7.6709 15.2607
c-6.49902 7.51074 -10.4443 17.29 -10.4443 27.9775c0 18.3369 11.5879 34.0137 27.8232 40.1064v55.4941c0 8.28418 6.71582 15 15 15c8.2832 0 14.999 -6.71582 14.999 -15v-55.4961c16.2363 -6.0918 27.8242 -21.7686 27.8242 -40.1055
c0 -10.6885 -3.94629 -20.4678 -10.4453 -27.9785c3.62305 -4.42676 6.28027 -9.61035 7.6709 -15.2607l35.3721 29.1973v50.6035c0 3.50391 1.22656 6.89648 3.46582 9.58984l49.082 59.0391c5.29492 6.37012 14.7549 7.24219 21.123 1.94531
c6.37109 -5.2959 7.24121 -14.7529 1.94531 -21.123l-45.6162 -54.8711v-52.25c0 -4.47656 -1.99902 -8.71777 -5.45117 -11.5684l-53.3096 -44.0049c-1.32129 -1.09082 -2.77734 -1.90918 -4.29785 -2.47656l0.765625 -17.3193
c20.7559 12.9141 44.7471 19.8242 69.8018 19.8242h114.082c15.9502 0 28.9268 -12.9756 28.9268 -28.9258c0 -36.1025 -31.3955 -66.6035 -68.5557 -66.6035h-76.7246c-22.9043 0 -45.1592 5.78516 -64.9141 16.583l0.963867 -21.7744l112.526 -53.1016
c5.25 -2.47656 8.59961 -7.75977 8.59961 -13.5645v-55.0645zM368.931 230.743c-21.5303 0 -42.0469 -6.59277 -59.2441 -18.8262c16.8965 -10.8555 36.6123 -16.7021 56.9727 -16.7021h76.7246c20.5195 0 37.9141 16.1611 38.5371 35.5283h-112.99zM145.34 195.214
c20.3613 0 40.0771 5.84668 56.9717 16.7021c-17.1963 12.2334 -37.7129 18.8262 -59.2422 18.8262h-112.992c0.570312 -19.6865 16.7637 -35.5283 36.5869 -35.5283h78.6758zM243.177 337.397c0 -7.07031 5.75293 -12.8242 12.8223 -12.8242
c7.07129 0 12.8242 5.75391 12.8242 12.8242c0 7.07129 -5.75293 12.8242 -12.8242 12.8242c-7.06934 0 -12.8223 -5.75293 -12.8223 -12.8242zM268.298 58.9873c5.73242 5.30566 8.07227 10.1318 8.33691 11.709l-9.45898 213.721
c-0.0107422 0.220703 -0.015625 0.442383 -0.015625 0.663086c0 5.14551 -5.11035 9.49414 -11.1611 9.49414c-6.0498 0 -11.1602 -4.34863 -11.1602 -9.49414c0 -0.220703 -0.00488281 -0.442383 -0.015625 -0.663086l-9.45801 -213.721
c0.264648 -1.57715 2.60352 -6.40332 8.33594 -11.709c5.86719 -5.42969 10.9023 -7.25684 12.2979 -7.25684c1.39648 0 6.43164 1.82715 12.2988 7.25684z" />
    <glyph glyph-name="045-chat" unicode="&#xf12c;" 
d="M255 432c140.61 0 257 -100.928 257 -225s-116.39 -225 -257 -225c-33.0908 0 -65.1416 5.46387 -95.4346 16.2744c-30.6152 -29.5312 -71.8213 -46.2744 -114.565 -46.2744c-13.3613 0 -20.0137 16.1973 -10.6064 25.6064c22.5 22.5 31.5684 55.1357 24.0977 85.9414
c-37.749 40.2539 -58.4912 91.04 -58.4912 143.452c0 124.072 114.39 225 255 225zM137 162c24.8145 0 45 20.1855 45 45s-20.1855 45 -45 45s-45 -20.1855 -45 -45s20.1855 -45 45 -45zM257 162c24.8145 0 45 20.1855 45 45s-20.1855 45 -45 45s-45 -20.1855 -45 -45
s20.1855 -45 45 -45zM377 162c24.8145 0 45 20.1855 45 45s-20.1855 45 -45 45s-45 -20.1855 -45 -45s20.1855 -45 45 -45z" />
    <glyph glyph-name="043-android" unicode="&#xf12a;" 
d="M64.0029 255.996c17.6641 0 32 -14.3359 32 -32v-127.998c0 -17.6641 -14.3359 -32 -32 -32c-17.6631 0 -31.999 14.3359 -31.999 32v127.998c0 17.6641 14.3359 32 31.999 32zM447.998 255.996c17.6641 0 31.999 -14.3359 31.999 -32v-127.998
c0 -17.6641 -14.335 -32 -31.999 -32s-32 14.3359 -32 32v127.998c0 17.6641 14.3359 32 32 32zM128.002 254.14h255.997v-191.997c0 -17.6641 -14.3359 -32 -32 -32v-62.1426c0 -17.6641 -14.3359 -32 -31.999 -32c-17.6641 0 -32 14.3359 -32 32v62.1426h-63.999v-62.1426
c0 -17.6641 -14.3359 -32 -32 -32c-17.6631 0 -31.999 14.3359 -31.999 32v62.1426c-17.6641 0 -32 14.3359 -32 32v191.997zM128.002 287.995c0 40.0635 18.7842 75.3906 47.6152 98.8467l-28.0947 35.1357c-5.50488 6.91211 -4.38477 16.96 2.49512 22.4951
c6.91211 5.53613 16.96 4.38477 22.4961 -2.49512l30.3037 -37.8877c16.2236 7.4873 34.1436 11.9033 53.1836 11.9033c18.7832 0 36.4795 -4.25586 52.543 -11.5195l31.1357 37.7275c5.63184 6.81543 15.6797 7.74414 22.5273 2.14355
c6.81641 -5.63184 7.77637 -15.7119 2.14355 -22.5273l-28.4795 -34.5273c29.1201 -23.4561 48.1279 -58.9756 48.1279 -99.2949h-255.997zM288 367.994c-8.83203 0 -16 -7.16797 -16 -16s7.16797 -16 16 -16s16 7.16797 16 16s-7.16797 16 -16 16zM224.001 367.994
c-8.83203 0 -16 -7.16797 -16 -16s7.16797 -16 16 -16s16 7.16797 16 16s-7.16797 16 -16 16z" />
    <glyph glyph-name="014-add" unicode="&#xf10d;" 
d="M503.742 200.258c4.56055 0 8.25781 -3.69727 8.25781 -8.25781s-3.69727 -8.25781 -8.25781 -8.25781h-239.484v-239.484c0 -4.56055 -3.69727 -8.25781 -8.25781 -8.25781s-8.25781 3.69727 -8.25781 8.25781v239.484h-239.484
c-4.56055 0 -8.25781 3.69727 -8.25781 8.25781s3.69727 8.25781 8.25781 8.25781h239.484v239.484c0 4.56055 3.69727 8.25781 8.25781 8.25781s8.25781 -3.69727 8.25781 -8.25781v-239.484h239.484z" />
    <glyph glyph-name="005-right-arrow-1" unicode="&#xf104;" 
d="M506.134 206.157c7.80957 -7.79199 7.83398 -20.4961 0.000976562 -28.3145c-0.00683594 -0.00585938 -0.0117188 -0.0126953 -0.0175781 -0.0185547l-104.504 -104c-7.82812 -7.79004 -20.4922 -7.76367 -28.2852 0.0673828
c-7.79199 7.8291 -7.76172 20.4922 0.0664062 28.2842l70.1621 69.8242h-423.557c-11.0459 0 -20 8.9541 -20 20s8.9541 20 20 20h423.558l-70.1641 69.8242c-7.82812 7.79199 -7.8584 20.4551 -0.0664062 28.2842c7.79297 7.83008 20.4561 7.8584 28.2852 0.0673828
l104.504 -104c0.00683594 -0.00585938 0.0117188 -0.0126953 0.0175781 -0.0185547z" />
    <glyph glyph-name="012-remove" unicode="&#xf10b;" 
d="M256 448c141.316 -0.167969 255.832 -114.684 256 -256c0 -141.387 -114.613 -256 -256 -256s-256 114.613 -256 256s114.613 256 256 256zM256 -32c123.656 0.132812 223.867 100.344 224 224c0 123.711 -100.289 224 -224 224s-224 -100.289 -224 -224
s100.289 -224 224 -224zM256 -32zM380.449 316.449c6.24609 -6.25 6.24609 -16.3789 0 -22.625l-101.824 -101.824l101.82 -101.824c5.98828 -6.19922 5.98828 -16.0312 0 -22.2305c-6.13672 -6.35547 -16.2656 -6.53125 -22.6211 -0.394531l-101.824 101.824
l-101.824 -101.824c-0.128906 -0.132812 -0.261719 -0.261719 -0.394531 -0.390625c-6.35547 -6.14062 -16.4844 -5.96484 -22.6211 0.390625c-6.14062 6.35938 -5.96484 16.4883 0.390625 22.625l101.824 101.824l-101.824 101.824
c-0.132812 0.128906 -0.261719 0.261719 -0.390625 0.394531c-6.14062 6.35547 -5.96484 16.4844 0.390625 22.6211c6.35547 6.14062 16.4844 5.96484 22.625 -0.390625l101.824 -101.824l101.824 101.824c6.24609 6.24609 16.375 6.24609 22.625 0zM380.449 316.449z" />
    <glyph glyph-name="058-ant" unicode="&#xf139;" 
d="M315.959 195c-4.29297 -5.70605 -9.37695 -10.7842 -15.0918 -15.0645c8.81641 -6.39453 16.9102 -14.7354 23.998 -24.8809c14.3232 -20.499 23.1514 -46.5547 25.4873 -74.5547h35.6484c5.96289 0 11.3604 -3.53223 13.7461 -8.99707l39.5225 -90.5068
c3.97754 -9.11035 12.9717 -14.9961 22.9111 -14.9961h23.8193c8.28418 0 15 -6.71582 15 -15s-6.71582 -15 -15 -15h-23.8203c-21.8682 0 -41.6523 12.9492 -50.4033 32.9902l-35.5947 81.5098h-25.8301c-2.33594 -28 -11.165 -54.0557 -25.4873 -74.5547
c-17.9971 -25.7598 -42.4541 -39.9453 -68.8643 -39.9453s-50.8672 14.1855 -68.8652 39.9453c-14.3232 20.499 -23.1514 46.5547 -25.4873 74.5547h-25.8301l-35.5957 -81.5098c-8.75 -20.041 -28.5352 -32.9902 -50.4023 -32.9902h-23.8193c-8.28418 0 -15 6.71582 -15 15
s6.71582 15 15 15h23.8193c9.94043 0 18.9336 5.88574 22.9111 14.9951l39.5234 90.5078c2.38574 5.46484 7.7832 8.99707 13.7461 8.99707h35.6484c2.33594 28 11.165 54.0557 25.4873 74.5547c7.08789 10.1455 15.1816 18.4863 23.998 24.8809
c-5.71582 4.28027 -10.7998 9.3584 -15.0928 15.0645h-52.5479l-25.6309 -42.7168c-2.71094 -4.51855 -7.59375 -7.2832 -12.8623 -7.2832h-90c-8.28418 0 -15 6.71582 -15 15s6.71582 15 15 15h81.5068l25.6309 42.7168c2.71094 4.51855 7.59375 7.2832 12.8623 7.2832
h47.5088c-0.987305 4.84766 -1.50879 9.86426 -1.50879 15s0.521484 10.1523 1.50879 15h-47.5088c-6.6748 0 -12.5469 4.41113 -14.4062 10.8223l-20.6309 71.1406c-3.08008 10.6201 -12.9531 18.0371 -24.0107 18.0371h-29.9521c-8.28418 0 -15 6.71582 -15 15
s6.71582 15 15 15h29.9521c24.3262 0 46.0479 -16.3174 52.8242 -39.6816l17.4912 -60.3193h49.7734c5.06055 6.72559 11.2236 12.5762 18.2197 17.2803c-3.10938 2.84961 -6.08301 6.01465 -8.87695 9.51562c-12.3184 15.4395 -19.3838 34.8623 -19.3838 53.2881
c0 15.957 5.30762 29.5986 15.4121 39.9639c-9.80859 8.25391 -22.3096 12.9531 -35.4121 12.9531c-8.28418 0 -15 6.71582 -15 15s6.71582 15 15 15c23.7217 0 46.1846 -9.92773 62.1436 -27.0234c8.42383 2.64746 17.791 4.02344 27.8564 4.02344
s19.4326 -1.37598 27.8564 -4.02344c15.959 17.0957 38.4219 27.0234 62.1436 27.0234c8.28418 0 15 -6.71582 15 -15s-6.71582 -15 -15 -15c-13.1025 0 -25.6035 -4.69922 -35.4121 -12.9541c10.1055 -10.3643 15.4121 -24.0059 15.4121 -39.9629
c0 -18.4258 -7.06543 -37.8486 -19.3838 -53.2871c-2.79395 -3.50195 -5.76758 -6.66699 -8.87695 -9.51562c6.99609 -4.7041 13.1592 -10.5547 18.2197 -17.2803h49.7734l17.4922 60.3193c6.77539 23.3633 28.4971 39.6807 52.8232 39.6807h29.9521
c8.28418 0 15 -6.71582 15 -15s-6.71582 -15 -15 -15h-29.9521c-11.0576 0 -20.9307 -7.41699 -24.0107 -18.0371l-20.6309 -71.1406c-1.85938 -6.41113 -7.73145 -10.8223 -14.4062 -10.8223h-47.5088c0.987305 -4.84766 1.50879 -9.86426 1.50879 -15
s-0.521484 -10.1523 -1.50879 -15h47.5088c5.26855 0 10.1514 -2.76465 12.8623 -7.2832l25.6309 -42.7168h81.5068c8.28418 0 15 -6.71582 15 -15s-6.71582 -15 -15 -15h-90c-5.26855 0 -10.1514 2.76465 -12.8623 7.2832l-25.6309 42.7168h-52.5479zM216 365.083
c0 -22.5439 18.458 -50.083 40 -50.083s40 27.5391 40 50.083c0 27.002 -27.9736 29.917 -40 29.917s-40 -2.91504 -40 -29.917zM300.272 137.873c-12.2227 17.4932 -27.9453 27.127 -44.2725 27.127s-32.0498 -9.63379 -44.2725 -27.127
c-13.3662 -19.1309 -20.7275 -44.833 -20.7275 -72.373s7.36133 -53.2422 20.7275 -72.373c12.2227 -17.4932 27.9453 -27.127 44.2725 -27.127s32.0498 9.63379 44.2725 27.127c13.3662 19.1309 20.7275 44.833 20.7275 72.373s-7.36133 53.2422 -20.7275 72.373zM211 240
c0 -24.8135 20.1865 -45 45 -45s45 20.1865 45 45s-20.1865 45 -45 45s-45 -20.1865 -45 -45z" />
    <glyph glyph-name="060-cockroach" unicode="&#xf13b;" 
d="M452.072 137.445l48.251 -21.1934l-12.0635 -27.4648l-56.2236 24.6953l-48.457 72.0625l-33.9658 -15.6875c0.0634766 -2.97363 0.0986328 -5.96094 0.0986328 -8.96289c0 -10.4619 -0.389648 -20.8008 -1.14551 -30.9385l50.5527 -36.3281v-157.627h-29.998v142.244
l-24.6055 17.6816c-4.10645 -24.7432 -10.5693 -47.5078 -19.1416 -66.8799c-17.416 -39.3564 -42.0547 -61.0293 -69.377 -61.0293c-27.3213 0 -51.9609 21.6758 -69.376 61.0293c-8.57227 19.3711 -15.0352 42.1367 -19.1416 66.8799l-24.6064 -17.6826v-142.243h-29.998
v157.627l50.5537 36.3291c-0.754883 10.1367 -1.14551 20.4756 -1.14551 30.9375c0 3.00195 0.0361328 5.98926 0.0996094 8.96387l-33.9639 15.6865l-48.457 -72.0625l-56.2236 -24.6953l-12.0635 27.4648l48.252 21.1943l57.8623 86.0508l46.5439 -21.4971
c1.60059 15.8359 4.11328 31.0166 7.44434 45.2363l-27.5986 68.4355l-74.8701 33.2549l12.1777 27.415l85.9717 -38.1836l18.7529 -46.501c6.97363 16.0068 15.2891 29.5322 24.6924 39.7822c-0.386719 2.3877 -0.595703 4.83594 -0.595703 7.33301
c0 10.5039 3.57129 20.1846 9.55273 27.9111l-47.7256 63.2471l23.9453 18.0693l48.9521 -64.875c3.51562 0.869141 7.18555 1.33887 10.9648 1.33887c3.77832 0 7.44922 -0.469727 10.9648 -1.33887l48.9531 64.875l23.9473 -18.0713l-47.7256 -63.2461
c5.98047 -7.72656 9.55371 -17.4082 9.55371 -27.9121c0 -2.49512 -0.208984 -4.94434 -0.595703 -7.33301c9.40332 -10.25 17.7197 -23.7764 24.6934 -39.7842l18.7539 46.5039l85.9707 38.1846l12.1777 -27.415l-74.8701 -33.2549l-27.5996 -68.4385
c3.33008 -14.2188 5.84277 -29.4004 7.44336 -45.2344l46.5459 21.4971zM255.998 354.466c-8.65234 0 -15.6934 -7.04102 -15.6934 -15.6934c0 -8.65332 7.04102 -15.6943 15.6934 -15.6943c8.6543 0 15.6943 7.04102 15.6943 15.6943
c0 8.65234 -7.04102 15.6934 -15.6943 15.6934zM205.755 258.219c-0.348633 -1.12793 -0.679688 -2.27832 -1.01562 -3.42285c15.3896 -9.43945 32.918 -14.4043 51.2598 -14.4043c18.3428 0 35.8711 4.96387 51.2588 14.4033
c-0.335938 1.14453 -0.666992 2.29492 -1.0166 3.42383c-5.70605 18.4541 -12.9941 34 -21.1299 45.3643c-7.91113 -6.55566 -18.0596 -10.5029 -29.1133 -10.5029s-21.2021 3.94727 -29.1133 10.5039c-8.13672 -11.3643 -15.4238 -26.9111 -21.1299 -45.3652z
M297.942 41.1855c14.041 31.7285 21.7734 74.2412 21.7764 119.709c0 22.0576 -1.83594 43.5195 -5.37891 63.4941c-17.9316 -9.18945 -37.7432 -13.9941 -58.3389 -13.9941c-20.5967 0 -40.4082 4.80566 -58.3398 13.9941
c-3.54395 -19.9756 -5.37891 -41.4375 -5.37891 -63.4941c0 -45.4678 7.73145 -87.9814 21.7725 -119.709c11.9619 -27.0303 27.6426 -43.1699 41.9434 -43.1699c14.3018 0 29.9824 16.1396 41.9443 43.1699z" />
    <glyph glyph-name="016-null-1" unicode="&#xf10f;" 
d="M430.556 56.5498l26.3711 -43.4893c3.28223 -5.41406 3.64844 -12.0742 0.979492 -17.8154c-2.66992 -5.74219 -7.99902 -9.75391 -14.2559 -10.7334l-41.9912 -6.56738c-0.958984 -0.149414 -1.82617 -0.646484 -2.44141 -1.39746l-27.457 -33.5898
c-3.6084 -4.41504 -9.01855 -6.95703 -14.6768 -6.95801c-0.44043 0 -0.879883 0.015625 -1.32227 0.046875c-6.12988 0.429688 -11.6904 3.82324 -14.876 9.07715l-71.0029 117.083c-4.83496 1.23047 -9.47754 2.08496 -13.8838 2.08496
s-9.04785 -0.854492 -13.8838 -2.08594l-71.0029 -117.083c-3.18457 -5.25391 -8.74609 -8.64648 -14.876 -9.07715c-0.442383 -0.03125 -0.883789 -0.046875 -1.32227 -0.046875c-5.65918 0 -11.0693 2.54297 -14.6777 6.95801l-27.4561 33.5908
c-0.613281 0.75 -1.48145 1.24707 -2.43945 1.39648l-41.9922 6.56738c-6.25684 0.979492 -11.5859 4.99219 -14.2559 10.7334c-2.66992 5.74219 -2.30371 12.4014 0.979492 17.8145l60.5332 99.8203c-9.97363 3.79785 -19.4434 8.55273 -25.7686 17.2432
c-8.08887 11.1133 -8.40137 25.2539 -8.70312 38.9287c-0.196289 8.86719 -0.380859 17.2422 -2.62012 24.1377c-2.0957 6.46094 -6.74023 13.0938 -11.6572 20.1182c-7.9834 11.4033 -16.2393 23.1963 -16.2393 37.5518c0 14.3564 8.25586 26.1504 16.2402 37.5537
c4.91602 7.02246 9.56055 13.6572 11.6572 20.1152c2.23926 6.89648 2.42383 15.2715 2.62012 24.1387c0.302734 13.6738 0.614258 27.8145 8.70312 38.9287c8.17188 11.2305 21.5938 15.8945 34.5723 20.4053c8.31445 2.89062 16.1689 5.62012 21.9238 9.80859
c5.6416 4.10449 10.5938 10.6689 15.8389 17.6191c8.33105 11.04 16.9463 22.458 30.3477 26.8105c12.835 4.16602 26.252 0.131836 39.2266 -3.76758c8.62793 -2.59473 16.7783 -5.04492 24.2529 -5.04492s15.625 2.4502 24.252 5.04492
c12.9756 3.90039 26.3916 7.93066 39.2266 3.76758c13.4004 -4.35254 22.0166 -15.7705 30.3477 -26.8105c5.24512 -6.9502 10.1982 -13.5127 15.8398 -17.6191c5.75488 -4.18848 13.6084 -6.91797 21.9238 -9.80859c12.9785 -4.51074 26.4004 -9.1748 34.5723 -20.4053
c8.08887 -11.1143 8.40039 -25.2539 8.70312 -38.9287c0.196289 -8.86719 0.380859 -17.2422 2.62012 -24.1387c2.09668 -6.45898 6.74121 -13.0928 11.6572 -20.1152c7.98438 -11.4033 16.2402 -23.1973 16.2402 -37.5537c0 -14.3555 -8.25586 -26.1494 -16.2402 -37.5527
c-4.91602 -7.02344 -9.56055 -13.6572 -11.6572 -20.1162c-2.23926 -6.89551 -2.42383 -15.2705 -2.62012 -24.1377c-0.302734 -13.6758 -0.614258 -27.8164 -8.70312 -38.9297c-6.32422 -8.68945 -15.7939 -13.4443 -25.7676 -17.2422l16.25 -26.7959
c2.14844 -3.54297 1.01855 -8.15918 -2.52539 -10.3086c-3.54297 -2.15234 -8.15918 -1.01855 -10.3086 2.52539l-17.8477 29.4307c-6.17676 -2.2373 -11.8613 -4.59668 -16.2959 -7.82324c-5.6416 -4.10547 -10.5947 -10.6699 -15.8389 -17.6191
c-8.33105 -11.041 -16.9463 -22.458 -30.3477 -26.8096c-9.28223 -3.0127 -18.8691 -1.73145 -28.374 0.680664l62.6162 -103.255c0.919922 -1.51758 2.33301 -1.83301 3.09277 -1.88672c0.758789 -0.0517578 2.20215 0.0634766 3.32617 1.43652l27.4561 33.5908
c2.95801 3.61914 7.12988 6.00781 11.7451 6.72949l41.9902 6.56738c1.80762 0.282227 2.63281 1.51953 2.96387 2.23047c0.332031 0.712891 0.745117 2.13965 -0.204102 3.70312l-26.3711 43.4902c-2.14941 3.54395 -1.01953 8.16016 2.52539 10.3086
c3.5459 2.15039 8.16113 1.0166 10.3086 -2.52539zM158.279 -47.0938l62.6162 103.252c-5.56543 -1.41309 -11.1582 -2.43848 -16.7012 -2.43848c-3.92383 0 -7.82227 0.511719 -11.6699 1.76074c-13.4004 4.35254 -22.0166 15.7686 -30.3477 26.8105
c-5.24512 6.94922 -10.1982 13.5127 -15.8398 17.6191c-4.43359 3.22559 -10.1191 5.58594 -16.2959 7.82227l-62.1309 -102.455c-0.949219 -1.56348 -0.535156 -2.99023 -0.204102 -3.70312c0.331055 -0.709961 1.15527 -1.94824 2.96387 -2.23047l41.9902 -6.56738
c4.61426 -0.72168 8.78516 -3.11133 11.7432 -6.72852l27.457 -33.5918c1.12305 -1.37402 2.56543 -1.48828 3.32617 -1.43652c0.759766 0.0537109 2.17285 0.369141 3.09277 1.88672zM256 79.3027c9.68262 0 19.2871 -2.8877 28.5713 -5.68164
c11.2607 -3.38574 21.8965 -6.58594 30.2695 -3.86328c8.90332 2.88965 15.752 11.9648 23.002 21.5732c5.6748 7.51855 11.541 15.2949 18.9883 20.7148c7.55664 5.49902 16.8457 8.72656 25.8281 11.8486c11.293 3.92578 21.959 7.63281 27.3652 15.0605
c5.32227 7.31348 5.57031 18.542 5.83301 30.4287c0.210938 9.5625 0.429688 19.4492 3.34961 28.4434c2.79004 8.59277 8.30469 16.4697 13.6377 24.0869c6.95605 9.93652 13.5264 19.3213 13.5264 28.9453c0 9.625 -6.57129 19.0088 -13.5264 28.9463
c-5.33301 7.61719 -10.8477 15.4941 -13.6377 24.0869c-2.9209 8.99414 -3.13867 18.8818 -3.34961 28.4434c-0.262695 11.8867 -0.510742 23.1143 -5.83203 30.4277c-5.40723 7.42773 -16.0732 11.1338 -27.3652 15.0596
c-8.9834 3.12207 -18.2725 6.35059 -25.8281 11.8496c-7.44727 5.41895 -13.3145 13.1943 -18.9883 20.7148c-7.25 9.6084 -14.0986 18.6836 -23.002 21.5742c-8.37207 2.71973 -19.0088 -0.478516 -30.2686 -3.86328
c-9.28809 -2.79297 -18.8916 -5.68066 -28.5742 -5.68066c-9.68359 0 -19.2871 2.8877 -28.5752 5.67969c-8.29492 2.49316 -16.251 4.88672 -23.2139 4.88672c-2.48828 0 -4.84961 -0.304688 -7.05469 -1.02148c-8.90234 -2.89062 -15.751 -11.9658 -23.001 -21.5742
c-5.67383 -7.51953 -11.541 -15.2959 -18.9873 -20.7148c-7.55664 -5.49902 -16.8457 -8.72754 -25.8281 -11.8496c-11.293 -3.92578 -21.959 -7.63184 -27.3652 -15.0596c-5.32227 -7.3125 -5.57031 -18.541 -5.83301 -30.4277
c-0.210938 -9.5625 -0.429688 -19.4492 -3.34961 -28.4434c-2.79004 -8.59277 -8.30469 -16.4697 -13.6377 -24.0869c-6.95605 -9.9375 -13.5264 -19.3213 -13.5264 -28.9463c0 -9.62402 6.57031 -19.0088 13.5254 -28.9443
c5.33398 -7.61816 10.8486 -15.4951 13.6387 -24.0889c2.9209 -8.99414 3.13867 -18.8809 3.34961 -28.4424c0.263672 -11.8877 0.511719 -23.1143 5.83301 -30.4287c5.40625 -7.42773 16.0723 -11.1348 27.3643 -15.0605
c8.9834 -3.12207 18.2725 -6.34961 25.8281 -11.8486c7.44727 -5.41992 13.3145 -13.1943 18.9883 -20.7148c7.25098 -9.6084 14.0986 -18.6836 23.002 -21.5742c8.37402 -2.7207 19.0088 0.477539 30.2686 3.86426c9.28809 2.79297 18.8926 5.68066 28.5752 5.68066z
M402.03 250.859c0 -80.5215 -65.5088 -146.03 -146.029 -146.029c-50.6953 0 -97.0215 25.6963 -123.921 68.7393c-2.19727 3.51562 -1.12891 8.14551 2.38672 10.3418c3.51562 2.19727 8.14551 1.12793 10.3418 -2.3877c24.1387 -38.625 65.7061 -61.6846 111.192 -61.6846
c72.2451 0 131.021 58.7754 131.021 131.021c0 72.2461 -58.7754 131.021 -131.021 131.021s-131.021 -58.7754 -131.021 -131.021c0 -13.5137 2.0459 -26.833 6.08398 -39.5859c1.25098 -3.95215 -0.938477 -8.16992 -4.89062 -9.4209
c-3.9502 -1.25195 -8.16895 0.938477 -9.41992 4.89062c-4.50098 14.2217 -6.7832 29.0645 -6.7832 44.1162c0 80.5215 65.5078 146.031 146.029 146.031s146.03 -65.5098 146.03 -146.031zM346.915 273.448c2.68262 -8.25391 0.487305 -17.1436 -5.72754 -23.2031
l-26.1729 -25.5107l6.17871 -36.0244c1.4668 -8.55469 -1.9834 -17.0381 -9.00586 -22.1387c-7.02246 -5.10254 -16.1562 -5.7627 -23.8379 -1.72363l-32.3516 17.0088l-32.3506 -17.0088c-3.34277 -1.75586 -6.95801 -2.62402 -10.5557 -2.625
c-4.67285 0 -9.31543 1.46484 -13.2832 4.34863c-7.02148 5.10059 -10.4717 13.584 -9.00488 22.1387l6.17871 36.0244l-26.1729 25.5107c-6.21582 6.05859 -8.41113 14.9492 -5.72949 23.2031c2.68262 8.25391 9.68359 14.1572 18.2725 15.4062l36.1709 5.25586
l16.1758 32.7754c3.84082 7.78223 11.6201 12.6182 20.2979 12.6182c8.67969 0 16.458 -4.83594 20.2988 -12.6182l16.1758 -32.7754l36.1709 -5.25586c8.58887 -1.24902 15.5908 -7.15234 18.2725 -15.4062zM330.711 260.996
c2.12402 2.07031 2.8457 4.99219 1.93262 7.81445c-0.916016 2.82422 -3.21777 4.76465 -6.15625 5.19141l-36.2725 5.27148c-4.8252 0.701172 -8.99414 3.73047 -11.1523 8.10156l-16.2217 32.8711c-1.31445 2.66113 -3.87109 4.25 -6.83887 4.25
s-5.52344 -1.58887 -6.83789 -4.25l-16.2207 -32.8701c-2.15918 -4.37207 -6.32812 -7.40137 -11.1533 -8.10254l-36.2734 -5.27148c-2.9375 -0.426758 -5.2373 -2.36816 -6.15527 -5.19043c-0.917969 -2.82324 -0.196289 -5.74512 1.92871 -7.81543l26.2471 -25.585
c3.49121 -3.4043 5.08496 -8.30566 4.25977 -13.1113l-6.19629 -36.127c-0.501953 -2.92578 0.632812 -5.71387 3.0332 -7.45898c2.40137 -1.74414 5.4043 -1.95996 8.03027 -0.579102l32.4434 17.0566c4.31641 2.26953 9.46973 2.26953 13.7852 0l32.4443 -17.0566
c2.62598 -1.38086 5.62891 -1.16504 8.03027 0.579102c2.40039 1.74512 3.53418 4.5332 3.0332 7.45898l-6.19629 36.127c-0.825195 4.80566 0.768555 9.70801 4.25977 13.1113z" />
    <glyph glyph-name="025-right-arrow-2" unicode="&#xf118;" 
d="M256 448c141.385 0 256 -114.615 256 -256c-0.160156 -141.318 -114.682 -255.84 -256 -256c-141.385 0 -256 114.615 -256 256s114.615 256 256 256zM256 -46.9336c131.959 0 238.934 106.975 238.934 238.934c-0.150391 131.896 -107.037 238.783 -238.934 238.934
c-131.959 0 -238.934 -106.975 -238.934 -238.934s106.975 -238.934 238.934 -238.934zM194.014 342.853l144.819 -144.819c3.33105 -3.33203 3.33105 -8.73438 0 -12.0664l-144.819 -144.819c-1.59961 -1.59961 -3.76953 -2.5 -6.0332 -2.5
c-4.71191 0.000976562 -8.53223 3.82324 -8.53125 8.53516c0 2.26172 0.899414 4.43164 2.49805 6.03125l138.786 138.786l-138.786 138.786c-3.27344 3.38965 -3.17969 8.79297 0.210938 12.0664c3.30664 3.19336 8.54883 3.19336 11.8555 0z" />
    <glyph glyph-name="013-signs" unicode="&#xf10c;" 
d="M507.84 -39.7324c5.54688 -5.54688 5.54688 -14.5645 0.000976562 -20.1123c-2.75977 -2.76074 -6.39941 -4.1543 -10.041 -4.1543s-7.28223 1.39551 -10.0703 4.1543l-483.569 483.569c-5.54688 5.54688 -5.54688 14.5645 0 20.1113s14.5645 5.54688 20.1113 0z
M507.84 443.836c5.54688 -5.54688 5.54688 -14.5635 0 -20.1104l-483.568 -483.569c-2.75977 -2.75977 -6.40039 -4.15332 -10.042 -4.15332s-7.28125 1.39453 -10.0693 4.15332c-5.54688 5.54688 -5.54688 14.5645 0 20.1113l483.568 483.568
c5.54688 5.54688 14.5645 5.54688 20.1113 0z" />
    <glyph glyph-name="008-star" unicode="&#xf107;" 
d="M256 61.8662l-157.866 -115.199l59.7324 187.733l-157.866 110.933h192l64 192l64 -192h192l-157.866 -110.933l59.7324 -187.733z" />
    <glyph glyph-name="035-email" unicode="&#xf122;" 
d="M335.808 392.98h-159.615l54.4385 45.7275c7.37402 6.19531 16.3721 9.29199 25.3691 9.29199s17.9951 -3.09668 25.3691 -9.29199zM46 247.112v95.8682c0 11.0459 8.9541 20 20 20h380c11.0459 0 20 -8.9541 20 -20v-95.8682l-203.844 -159.252
c-2.24219 -1.75195 -4.58496 -2.12012 -6.15625 -2.12012s-3.91406 0.368164 -6.15723 2.12012zM380.5 223c0 8.28418 -6.71582 15 -15 15h-219c-8.28418 0 -15 -6.71582 -15 -15s6.71582 -15 15 -15h219c8.28418 0 15 6.71582 15 15zM288.5 298h-142
c-8.28418 0 -15 -6.71582 -15 -15s6.71582 -15 15 -15h142c8.28418 0 15 6.71582 15 15s-6.71582 15 -15 15zM472 -64h-432c-4.10352 0 -8.06152 0.620117 -11.7891 1.76758l188.327 135.021c0.670898 0.480469 1.27539 1.0166 1.84082 1.58105l12.9941 -10.1514
c7.23633 -5.65234 15.9307 -8.47852 24.626 -8.47852s17.3906 2.82617 24.626 8.47852l12.9941 10.1514c0.566406 -0.564453 1.1709 -1.10059 1.84082 -1.58105l188.329 -135.021c-3.72754 -1.14746 -7.68555 -1.76758 -11.7891 -1.76758zM512 244.98v-268.98
c0 -6.61523 -1.61621 -12.8496 -4.45898 -18.3467l-189.457 135.83zM193.916 93.4834l-189.457 -135.829c-2.84277 5.49609 -4.45898 11.7305 -4.45898 18.3457v268.98z" />
    <glyph glyph-name="061-placeholder" unicode="&#xf13c;" 
d="M382.806 395.479c62.6758 -62.666 70.4648 -180.574 16.6533 -252.302l-143.445 -207.177l-143.659 207.467c-53.5967 71.4375 -45.8076 189.346 16.8682 252.012c33.8672 33.8672 78.8896 52.5215 126.791 52.5215c47.8936 0 92.9248 -18.6543 126.792 -52.5215z
M257.669 204.89c36.083 0 65.4531 29.3691 65.4531 65.4531c0 36.083 -29.3701 65.4521 -65.4531 65.4521s-65.4531 -29.3691 -65.4531 -65.4521c0 -36.084 29.3701 -65.4531 65.4531 -65.4531z" />
    <glyph glyph-name="024-play" unicode="&#xf117;" 
d="M256 448c141.385 0 256 -114.615 256 -256s-114.615 -256 -256 -256s-256 114.615 -256 256s114.615 256 256 256zM186.865 86.1396l183.28 105.86l-183.28 105.86v-211.721z" />
  </font>
</defs>
</svg>
