<?xml version="1.0" standalone="no"?>
<!DOCTYPE svg PUBLIC "-//W3C//DTD SVG 1.1//EN" "http://www.w3.org/Graphics/SVG/1.1/DTD/svg11.dtd" >
<svg xmlns="http://www.w3.org/2000/svg">
<metadata>Generated by IcoMoon</metadata>
<defs>
<font id="quebec" horiz-adv-x="1024">
<font-face units-per-em="1024" ascent="960" descent="-64" />
<missing-glyph horiz-adv-x="1024" />
<glyph unicode="&#x20;" horiz-adv-x="512" d="" />
<glyph unicode="&#xe900;" glyph-name="home" d="M1024 368l-192 192v288h-128v-160l-192 192-512-512v-32h128v-320h320v192h128v-192h320v320h128v32z" />
<glyph unicode="&#xe901;" glyph-name="menu1" d="M1011.061 634.182c7.123 0 12.939 6.097 12.939 12.939v67.211c0 7.121-5.493 12.939-12.939 12.939h-998.122c-7.121 0-12.939-6.097-12.939-12.939v-67.211c0-7.121 5.493-12.939 12.939-12.939h998.122zM0 414.395c0-7.121 5.493-12.939 12.939-12.939h998.121c7.121 0 12.939 6.099 12.939 12.939v67.211c0 7.168-5.493 12.939-12.939 12.939h-998.121c-7.121 0-12.939-6.099-12.939-12.939v-67.211zM0 181.668c0-7.121 5.493-12.939 12.939-12.939h998.121c7.121 0 12.939 6.099 12.939 12.939v67.211c0 7.121-5.493 12.937-12.939 12.937h-998.121c-7.121 0-12.939-6.097-12.939-12.937v-67.211z" />
<glyph unicode="&#xe902;" glyph-name="menu2" d="M0 823.026h1024v-87.787h-1024v87.787zM0 494.58h1024v-87.787h-1024v87.787zM0 160.794h1024v-87.82h-1024v87.82z" />
<glyph unicode="&#xe903;" glyph-name="menu3" d="M0 812.448h1024v-172.464h-1024v172.464zM0 536.268h1024v-172.464h-1024v172.464zM0 256.016h1024v-172.464h-1024v172.464z" />
<glyph unicode="&#xe904;" glyph-name="black-star" d="M512 960l138.927-391.121h373.073l-304.384-229.69 108.812-403.188-316.428 241.734-316.404-241.734 108.788 403.188-304.384 229.69h373.073z" />
<glyph unicode="&#xe905;" glyph-name="empty-star" d="M1024 568.883h-373.092l-138.913 391.117-138.913-391.117h-373.081l304.392-229.676-108.834-403.195 316.436 241.731 316.401-241.743-108.799 403.195 304.404 229.688zM511.994 291.883l-175.277-145.546 72.296 207.288-165.863 133.805 204.856-5.818 63.988 235.029 63.953-235.029 204.867 5.818-165.805-133.793 72.296-207.288-175.311 145.534z" />
<glyph unicode="&#xe906;" glyph-name="pencil" d="M5.263 29.798c-10.621-25.329-4.872-54.563 14.55-73.985s48.656-25.17 73.985-14.546l247.549 103.798-232.285 232.282-103.798-247.549zM1004.191 772.792l-167.402 167.398c-26.414 26.414-69.24 26.414-95.658 0l-570.050-570.060c-0.145-0.142-0.266-0.3-0.408-0.445l263.015-263.015c0.145 0.142 0.303 0.263 0.445 0.404l570.057 570.057c26.414 26.417 26.414 69.244 0 95.661z" />
<glyph unicode="&#xe907;" glyph-name="quote-symbol" d="M1024 945.499v-514.286c0-320.547-117.141-480.799-351.465-480.799-25.91 0-65.494 1.785-118.839 5.139v199.008c162.081 0 242.903 74.944 242.903 224.788l-2.613 90.49h-167.916v475.573l397.929 0.087zM51.733 469.969h167.916l2.613-90.446c0-141.222-74.073-216.209-222.262-224.831v-199.008c46.464-3.397 79.211-5.095 98.154-5.095 234.325 0 351.465 160.252 351.465 480.755v514.243h-397.973v-475.573l0.087-0.044z" />
<glyph unicode="&#xe908;" glyph-name="push-pin" d="M283.876 310.070l-260.238-318.116c-6.774-8.292-7.034-20.48 0-29.070 8.004-9.836 22.494-11.292 32.294-3.25l318.214 260.262c-16.26 14.48-31.91 29.196-46.488 43.786-15.26 15.252-29.84 30.802-43.782 46.388zM895.78 831.8c-88.98 89.004-189.512 132.692-224.618 97.692-1.806-1.816-185.514-252.394-277.592-377.96-60.332 43-114.438 68.164-149.312 68.136-12.748 0-22.97-3.324-29.942-10.36-38.394-38.328 33.292-172.152 160.056-298.918 103.594-103.594 211.942-170.446 268.976-170.446 12.774 0 22.944 3.36 29.942 10.356 26.168 26.168 1.096 96.82-57.716 179.316 125.604 92.086 376.094 275.786 377.864 277.562 35.070 35.036-8.678 135.608-97.658 224.622z" />
<glyph unicode="&#xe909;" glyph-name="paper-push-pin" d="M818.142 426.764c-32.21 40.414-68.613 60.61-109.234 60.61v315.083c21.33 0 39.81 7.794 55.379 23.382 15.601 15.59 23.403 34.060 23.403 55.387 0 21.338-7.803 39.797-23.403 55.387-15.568 15.59-34.047 23.386-55.379 23.386h-393.833c-21.338 0-39.797-7.796-55.387-23.386-15.592-15.59-23.386-34.047-23.386-55.387 0-21.336 7.794-39.797 23.386-55.387 15.59-15.588 34.055-23.382 55.387-23.382v-315.075c-40.616 0-77.021-20.205-109.229-60.616-32.204-40.414-48.311-85.837-48.311-136.312 0-10.665 3.899-19.899 11.695-27.69 7.8-7.787 17.030-11.684 27.697-11.684h248.613l46.768-298.467c2.048-11.081 8.613-16.612 19.69-16.612h0.627c4.901 0 9.128 1.742 12.611 5.223 3.481 3.49 5.634 7.699 6.453 12.62l31.378 297.234h263.998c10.665 0 19.907 3.897 27.69 11.684 7.805 7.79 11.708 17.023 11.708 27.69 0.006 50.469-16.116 95.898-48.322 136.312zM452.919 507.063c0-5.738-1.843-10.452-5.539-14.15-3.692-3.694-8.413-5.539-14.155-5.539-5.738 0-10.46 1.843-14.155 5.539-3.692 3.692-5.535 8.413-5.535 14.15v275.691c0 5.742 1.843 10.471 5.535 14.155 3.694 3.688 8.417 5.535 14.155 5.535 5.742 0 10.462-1.841 14.155-5.535 3.694-3.69 5.539-8.413 5.539-14.155v-275.691z" />
<glyph unicode="&#xe90a;" glyph-name="portfolio-menu" d="M0 960h458.666v-458.666h-458.666v458.666zM565.334 960h458.666v-458.666h-458.666v458.666zM0 394.666h458.666v-458.666h-458.666v458.666zM565.334 394.666h458.666v-458.666h-458.666v458.666z" />
<glyph unicode="&#xe90b;" glyph-name="heart" d="M1024 614.992c0 152.723-123.808 276.525-276.532 276.525-99.725 0-186.817-52.962-235.471-132.113-48.648 79.151-135.777 132.113-235.501 132.113-152.723 0-276.496-123.802-276.496-276.525 0-83.149 36.846-157.539 94.916-208.196l391.846-391.863c6.692-6.692 15.768-10.452 25.234-10.452s18.542 3.76 25.234 10.452l391.846 391.863c58.073 50.658 94.923 125.047 94.923 208.196z" />
<glyph unicode="&#xe90c;" glyph-name="expand" d="M377.433 403.144l-201.862-201.854-67.28 67.285c-18.143 18.147-45.429 23.564-69.133 13.753-23.704-9.82-39.157-32.953-39.157-58.611v-224.277c0-35.034 28.403-63.436 63.436-63.436l224.281-0.004c0.030 0.004 0.051 0.004 0.080 0 35.038 0 63.436 28.403 63.436 63.436 0 18.511-7.93 35.169-20.574 46.769l-65.373 65.373 201.854 201.85c24.774 24.774 24.774 64.938 0 89.711-24.765 24.778-64.938 24.774-89.707 0.004zM960.564 960h-224.281c-25.658 0-48.787-15.457-58.607-39.161-9.816-23.704-4.39-50.99 13.753-69.133l67.289-67.289-201.85-201.854c-24.774-24.774-24.774-64.938 0-89.711 12.387-12.387 28.622-18.578 44.854-18.578 16.235 0 32.471 6.191 44.854 18.583l201.854 201.854 67.28-67.285c12.133-12.137 28.36-18.583 44.866-18.583 8.175 0 16.417 1.577 24.262 4.83 23.704 9.82 39.161 32.953 39.161 58.607v224.285c0 35.034-28.403 63.436-63.436 63.436z" />
<glyph unicode="&#xe90d;" glyph-name="play-button1" d="M955.316 703.958c-141.36 244.843-454.453 328.737-699.276 187.351-244.843-141.34-328.74-454.421-187.355-699.254 141.34-244.843 454.424-328.75 699.25-187.378 244.846 141.389 328.783 454.453 187.381 699.28zM716.756 93.372c-195.845-113.111-446.335-45.992-559.413 149.892-113.105 195.845-45.962 446.331 149.889 559.387 195.858 113.105 446.335 45.992 559.42-149.886 113.088-195.874 45.966-446.309-149.895-559.394zM696.283 468.808l-268.054 156.335c-24.427 14.261-44.13 2.859-43.993-25.396l1.373-310.309c0.124-28.248 20.068-39.748 44.567-25.598l266.003 153.577c24.473 14.124 24.525 37.13 0.104 51.391z" />
<glyph unicode="&#xe90e;" glyph-name="user3" d="M512 960c-148.878 0-270-121.122-270-270s121.122-270 270-270 270 121.122 270 270-121.122 270-270 270zM847.932 243.61c-73.92 75.056-171.914 116.39-275.932 116.39h-120c-104.016 0-202.012-41.334-275.932-116.39-73.558-74.688-114.068-173.276-114.068-277.61 0-16.568 13.432-30 30-30h840c16.568 0 30 13.432 30 30 0 104.334-40.51 202.922-114.068 277.61z" />
<glyph unicode="&#xe90f;" glyph-name="arrow-bottom" d="M1024 644.267l-119.467 119.467-392.533-392.533-392.533 392.533-119.467-119.467 512-512z" />
<glyph unicode="&#xe910;" glyph-name="arrow-top" d="M1024 251.733l-119.467-119.467-392.533 392.533-392.533-392.533-119.467 119.467 512 512z" />
<glyph unicode="&#xe911;" glyph-name="arrow-left" d="M708.267 960l119.467-119.467-392.533-392.533 392.533-392.533-119.467-119.467-512 512z" />
<glyph unicode="&#xe912;" glyph-name="arrow-right" d="M315.733 960l-119.467-119.467 392.533-392.533-392.533-392.533 119.467-119.467 512 512z" />
<glyph unicode="&#xe913;" glyph-name="speech1" d="M511.994 927.997c-282.314 0-511.994-189.565-511.994-422.495 0-126.12 68.624-245.694 185.252-325.62-15.838-60.068-49.688-95.437-49.84-95.566-17.533-17.498-23.938-43.996-16.75-69.196 0.561-1.987 1.274-3.927 2.127-5.868 10.812-25.084 35.685-41.249 63.34-41.249 112.152 0 204.749 60.745 267.025 118.008 20.969-1.999 41.342-3.004 60.851-3.004 282.314 0 511.994 189.495 511.994 422.495-0.023 232.93-229.692 422.495-512.006 422.495zM511.994 180.63c-22.559 0-46.754 1.625-71.873 4.862-15.102 1.812-30.285-3.168-41.097-13.886-36.562-36.293-88.973-77.928-150.747-96.372 16.785 30.192 33.499 71.066 40.244 121.444 2.595 19.368-6.686 38.444-23.646 48.449-105.875 62.3-166.632 157.235-166.632 260.374 0 179.127 185.591 324.872 413.752 324.872 228.149 0 413.752-145.745 413.752-324.872 0-179.197-185.591-324.872-413.752-324.872zM728.84 596.871h-417.597c-13.559 0-24.569-10.94-24.569-24.441 0-13.43 10.999-24.371 24.569-24.371h417.609c13.559 0 24.558 10.94 24.558 24.371-0.012 13.5-10.999 24.441-24.569 24.441zM728.84 453.932h-417.597c-13.559 0-24.569-10.94-24.569-24.429 0-13.43 10.999-24.382 24.569-24.382h417.609c13.559 0 24.558 10.952 24.558 24.382-0.012 13.5-10.999 24.429-24.569 24.429z" />
<glyph unicode="&#xe914;" glyph-name="speech2" d="M512-64l-157.493 272.808h-196.829c-80.997 0-146.866 59.706-146.866 133.175v484.804c0 73.47 65.905 133.212 146.866 133.212h708.645c80.961 0 146.829-59.743 146.829-133.212v-484.804c0-73.47-65.868-133.175-146.829-133.175h-196.829l-157.493-272.808zM157.678 886.198c-40.259 0-73.064-26.642-73.064-59.41v-484.804c0-32.768 32.805-59.374 73.064-59.374h239.339l114.873-199.007 114.836 199.007h239.487c40.296 0 73.027 26.642 73.027 59.374v484.804c0 32.768-32.842 59.41-73.027 59.41h-708.534z" />
<glyph unicode="&#xe915;" glyph-name="shop2" d="M64.002 960h128c30.938 0 57.438-22.126 62.938-52.562l13.75-75.438h691.312c22.188 0 42.782-11.5 54.438-30.376s12.718-42.376 2.812-62.25l-192-384c-10.844-21.69-33-35.376-57.25-35.376h-406.188l11.624-64h330.564c35.344 0 64-28.626 64-64s-28.656-64-64-64h-384c-30.938 0-57.438 22.126-62.938 52.562l-118.5 651.44h-74.562c-35.376 0-64 28.626-64 64s28.622 64 64 64zM728.442 448l128 256h-564.502l46.562-256h389.94zM640.002 64c35.344 0 64-28.624 64-64s-28.656-64-64-64-64 28.624-64 64 28.66 64 64 64zM384.002 64c35.376 0 64-28.624 64-64s-28.624-64-64-64c-35.374 0-64 28.624-64 64s28.622 64 64 64z" />
<glyph unicode="&#xe916;" glyph-name="check-mark" d="M1005.502 732.078l-89.846 89.846c-12.319 12.329-27.302 18.495-44.914 18.495-17.628 0-32.611-6.167-44.93-18.495l-433.389-434.044-194.231 194.893c-12.333 12.333-27.307 18.493-44.918 18.493-17.623 0-32.597-6.16-44.93-18.493l-89.846-89.848c-12.333-12.331-18.498-27.309-18.498-44.93 0-17.607 6.164-32.599 18.498-44.928l329.002-328.991c12.326-12.338 27.305-18.498 44.923-18.498 17.611 0 32.59 6.176 44.923 18.498l568.156 568.149c12.322 12.333 18.498 27.309 18.498 44.93 0.009 17.611-6.176 32.59-18.498 44.923z" />
<glyph unicode="&#xe917;" glyph-name="close-button" d="M1024 857.6l-102.4 102.4-409.6-409.6-409.6 409.6-102.4-102.4 409.6-409.6-409.6-409.6 102.4-102.4 409.6 409.6 409.6-409.6 102.4 102.4-409.6 409.6z" />
<glyph unicode="&#xe918;" glyph-name="forbidden-mark" d="M861.196 953.847c-8.204 8.204-21.633 8.204-29.837 0l-304.44-304.44c-8.204-8.204-21.633-8.204-29.837 0l-304.434 304.44c-8.204 8.204-21.633 8.204-29.837 0l-156.657-156.651c-8.204-8.204-8.204-21.633 0-29.837l304.44-304.44c8.204-8.204 8.204-21.633 0-29.837l-304.44-304.44c-8.204-8.204-8.204-21.633 0-29.837l156.651-156.651c8.204-8.204 21.633-8.204 29.837 0l304.44 304.44c8.204 8.204 21.633 8.204 29.837 0l304.434-304.434c8.204-8.204 21.633-8.204 29.837 0l156.651 156.651c8.204 8.204 8.204 21.633 0 29.837l-304.434 304.434c-8.204 8.204-8.204 21.633 0 29.837l304.434 304.434c8.204 8.204 8.204 21.633 0 29.837l-156.645 156.657z" />
<glyph unicode="&#xe919;" glyph-name="plus2" d="M981.333 533.333h-362.667c-12.8 0-21.333 8.533-21.333 21.333v362.667c0 25.6-17.067 42.667-42.667 42.667h-85.333c-25.6 0-42.667-17.067-42.667-42.667v-362.667c0-12.8-8.533-21.333-21.333-21.333h-362.667c-25.6 0-42.667-17.067-42.667-42.667v-85.333c0-25.6 17.067-42.667 42.667-42.667h362.667c12.8 0 21.333-8.533 21.333-21.333v-362.667c0-25.6 17.067-42.667 42.667-42.667h85.333c25.6 0 42.667 17.067 42.667 42.667v362.667c0 12.8 8.533 21.333 21.333 21.333h362.667c25.6 0 42.667 17.067 42.667 42.667v85.333c0 25.6-17.067 42.667-42.667 42.667z" />
<glyph unicode="&#xe91a;" glyph-name="apple" d="M564.85 882.438c36.773 43.236 98.93 75.401 150.221 77.562 6.542-60.063-17.533-120.206-53.123-163.544-35.647-43.258-93.992-76.959-151.256-72.465-7.782 58.766 21.060 120.047 54.158 158.447zM856.644 63.124c-42.564-62.407-86.585-124.45-156.080-125.759-68.403-1.297-90.317 40.63-168.38 40.63-78.12 0-102.582-39.333-167.14-41.938-67.095-2.526-118.124 67.425-161.018 129.559-87.643 127.067-154.567 359.265-64.592 515.982 44.555 77.824 124.405 127.056 210.91 128.364 65.9 1.217 128.148-44.567 168.38-44.567 40.323 0 115.883 54.966 195.3 46.899 33.246-1.377 126.555-13.437 186.493-101.399-4.745-3.118-111.377-65.365-110.091-195.026 1.297-154.897 135.293-206.359 136.863-207.064-1.229-3.641-21.436-73.489-70.645-145.681z" />
<glyph unicode="&#xe91b;" glyph-name="skype" d="M981.245 373.873c3.821 24.176 5.833 48.909 5.833 74.154 0 262.39-212.698 475.083-475.095 475.083-25.178 0-49.983-2.074-74.138-5.852-43.755 27.073-95.398 42.741-150.742 42.741-158.553 0-287.090-128.52-287.090-287.090 0-55.333 15.677-106.932 42.739-150.775-3.745-24.217-5.807-48.871-5.807-74.116 0-262.409 212.693-475.038 475.029-475.038 25.2 0 50.012 1.943 74.164 5.754 43.8-27.021 95.4-42.731 150.733-42.731 158.596 0 287.119 128.554 287.119 287.119 0.012 55.354-15.656 106.942-42.743 150.752zM737.548 231.954c-20.098-28.933-49.621-51.542-88.198-67.8-38.656-16.301-84.344-24.412-137.105-24.412-63.237 0-115.593 11.066-156.92 33.411-29.295 16.001-53.121 37.465-71.438 64.232-18.355 26.788-27.662 53.021-27.662 78.599 0 15.089 5.754 28.211 16.955 38.91 11.318 10.777 25.895 16.179 43.1 16.179 14.094 0 26.2-4.245 36.056-12.656 9.782-8.409 17.989-20.634 24.7-36.765 8.044-18.689 16.782-34.311 26.078-46.776 9.24-12.311 22.243-22.588 39.084-30.633 16.655-8.066 38.822-12.099 66.56-12.099 37.96 0 68.638 8.211 92.117 24.409 23.598 16.346 34.932 36.234 34.932 60.265 0 19.167-6.111 34.389-18.643 46.257-12.646 12.023-28.978 21.179-49.245 27.566-20.346 6.454-47.662 13.299-81.894 20.51-45.967 10.032-84.411 21.71-115.543 35.12-31.173 13.461-55.999 31.861-74.4 55.104-18.439 23.471-27.633 52.645-27.633 87.198 0 32.949 9.706 62.415 29.138 88.060 19.422 25.716 47.521 45.4 84.161 59.111 36.511 13.706 79.494 20.562 128.737 20.562 39.379 0 73.443-4.557 102.275-13.622 28.754-9.132 52.723-21.184 71.888-36.306 19.043-15.089 33.056-31.004 41.932-47.705 8.868-16.751 13.334-33.111 13.334-49.076 0-14.844-5.754-28.307-16.967-40.106-11.211-11.815-25.552-17.839-42.301-17.784-15.098 0-26.943 3.483-35.156 10.856-7.999 7.133-16.401 18.489-25.488 34.316-11.487 22.084-25.245 39.289-41.243 51.595-15.577 12.077-41.277 18.365-77.038 18.289-33.087 0-59.561-6.761-79.542-19.984-20.105-13.434-29.716-29.021-29.761-47.283 0.033-11.444 3.323-21.093 9.944-29.345 6.723-8.328 16.077-15.544 28.1-21.626 12.027-6.178 24.262-10.956 36.556-14.394 12.439-3.526 33.078-8.623 61.765-15.372 35.977-7.754 68.61-16.417 97.933-25.859 29.266-9.49 54.242-20.934 74.876-34.568 20.798-13.594 37.053-30.925 48.657-51.859 11.687-20.967 17.508-46.576 17.508-76.711 0.045-36.287-10.063-68.922-30.209-97.809z" />
<glyph unicode="&#xe91c;" glyph-name="instagram" d="M921.6 960h-819.2c-56.32 0-102.4-46.080-102.4-102.4v-819.2c0-56.32 46.080-102.4 102.4-102.4h819.2c56.32 0 102.4 46.080 102.4 102.4v819.2c0 56.32-46.080 102.4-102.4 102.4zM512 652.8c112.64 0 204.8-92.16 204.8-204.8s-92.16-204.8-204.8-204.8c-112.64 0-204.8 92.16-204.8 204.8s92.16 204.8 204.8 204.8zM128 38.4c-15.36 0-25.6 10.24-25.6 25.6v435.2h107.52c-5.12-15.36-5.12-35.84-5.12-51.2 0-168.96 138.24-307.2 307.2-307.2s307.2 138.24 307.2 307.2c0 15.36 0 35.84-5.12 51.2h107.52v-435.2c0-15.36-10.24-25.6-25.6-25.6h-768zM921.6 729.6c0-15.36-10.24-25.6-25.6-25.6h-102.4c-15.36 0-25.6 10.24-25.6 25.6v102.4c0 15.36 10.24 25.6 25.6 25.6h102.4c15.36 0 25.6-10.24 25.6-25.6v-102.4z" />
<glyph unicode="&#xe91d;" glyph-name="pinterest" d="M810.035 855.067c-70.486 67.666-168.031 104.933-274.665 104.933-162.889 0-263.073-66.771-318.432-122.781-68.227-69.026-107.351-160.679-107.351-251.464 0-113.986 47.678-201.474 127.52-234.022 5.36-2.196 10.754-3.303 16.041-3.303 16.844 0 30.19 11.021 34.814 28.7 2.695 10.143 8.94 35.164 11.655 46.026 5.813 21.451 1.116 31.769-11.559 46.707-23.092 27.323-33.846 59.633-33.846 101.683 0 124.901 93.004 257.646 265.378 257.646 136.771 0 221.733-77.735 221.733-202.868 0-78.964-17.009-152.092-47.902-205.923-21.468-37.403-59.217-81.989-117.17-81.989-25.061 0-47.572 10.294-61.777 28.241-13.419 16.966-17.841 38.883-12.445 61.724 6.097 25.807 14.41 52.727 22.455 78.753 14.674 47.532 28.545 92.426 28.545 128.244 0 61.265-37.664 102.43-93.714 102.43-71.232 0-127.038-72.349-127.038-164.709 0-45.296 12.038-79.175 17.488-92.185-8.973-38.021-62.305-264.060-72.421-306.685-5.849-24.882-41.086-221.409 17.237-237.081 65.529-17.607 124.102 173.798 130.063 195.427 4.832 17.59 21.738 84.103 32.099 124.99 31.633-30.471 82.567-51.070 132.128-51.070 93.43 0 177.454 42.043 236.595 118.378 57.358 74.040 88.948 177.236 88.948 290.564 0 88.598-38.047 175.941-104.378 239.63z" />
<glyph unicode="&#xe91e;" glyph-name="linkedin" d="M921.6 960h-819.2c-56.32 0-102.4-46.080-102.4-102.4v-819.2c0-56.32 46.080-102.4 102.4-102.4h819.2c56.32 0 102.4 46.080 102.4 102.4v819.2c0 56.32-46.080 102.4-102.4 102.4zM307.2 89.6h-153.6v460.8h153.6v-460.8zM230.4 637.44c-51.2 0-92.16 40.96-92.16 92.16s40.96 92.16 92.16 92.16 92.16-40.96 92.16-92.16-40.96-92.16-92.16-92.16zM870.4 89.6h-153.6v271.36c0 40.958-35.84 76.8-76.8 76.8s-76.8-35.842-76.8-76.8v-271.36h-153.6v460.8h153.6v-61.44c25.6 40.96 81.92 71.68 128 71.68 97.28 0 179.2-81.92 179.2-179.2v-291.84z" />
<glyph unicode="&#xe91f;" glyph-name="vimeo" d="M1019.645 725.23c7.639 42.875 7.468 86.962-19.012 120.303-36.946 46.749-115.586 48.469-169.459 40.219-43.827-6.7-192.065-72.103-242.508-228.68 89.368 6.793 136.206-6.441 127.608-104.834-3.601-41.168-24.399-86.269-47.606-129.506-26.819-49.845-77.084-147.719-142.999-77.169-59.372 63.495-54.914 184.932-68.489 265.801-7.561 45.37-15.555 101.912-30.42 148.579-12.81 40.131-42.186 88.515-78.111 99.001-38.584 11.339-86.289-6.359-114.303-22.863-89.204-52.419-157.188-127.007-234.347-188.54v0c12.561-26.911 19.412-44.346 41.926-47.613 53.115-7.823 103.735 49.5 139.046-10.141 21.484-36.437 28.194-76.394 41.94-115.682 18.388-52.32 32.567-109.295 47.606-169.459 25.436-101.912 56.723-254.192 144.808-291.493 44.94-19.084 112.494 6.448 146.695 26.73 92.638 54.822 164.827 134.308 226.615 215.177 141.275 191.39 219.222 408.205 231.008 470.168z" />
<glyph unicode="&#xe920;" glyph-name="youtube" d="M1006.305 690.055c-12.536 54.458-57.080 94.636-110.703 100.629-126.981 14.175-255.506 14.249-383.438 14.175-127.954 0.074-256.499 0-383.481-14.175-53.592-5.993-98.103-46.171-110.64-100.629-17.843-77.554-18.044-162.212-18.044-242.060s0-164.495 17.843-242.039c12.515-54.448 57.037-94.626 110.661-100.629 126.971-14.185 255.506-14.259 383.46-14.185 127.975-0.074 256.478 0 383.438 14.185 53.592 5.993 98.145 46.171 110.682 100.629 17.853 77.554 17.917 162.202 17.917 242.039 0 79.848 0.148 164.506-17.695 242.060zM379.855 289.059c0 113.272 0 225.359 0 338.641 108.526-56.625 216.332-112.87 325.545-169.844-108.874-56.467-216.734-112.373-325.545-168.797z" />
<glyph unicode="&#xe921;" glyph-name="google-plus" horiz-adv-x="1088" d="M676.884 537.541h-347.788v-161.178h174.914c-23.514-66.854-80.5-107.452-153.318-107.452-97.352 0-182.776 83.722-182.776 179.158 0 95.364 85.424 179.016 182.776 179.016 46.544 0 85.89-14.864 113.792-42.962l12.662-12.768 119.936 119.936-13.038 12.662c-56.772 55.16-137.45 84.314-233.35 84.314-192.86-0.002-343.958-149.432-343.958-340.196 0-190.836 151.096-340.338 343.956-340.338 177.78 0 304.090 104.3 329.646 272.196 3.33 21.778 5.032 44.7 5.050 68.142 0 25.734-2.204 53.654-5.892 74.662l-2.614 14.81zM973.902 537.627v107.364h-125.45v-107.452h-107.452v-125.362h107.452v-107.452h125.45v107.452h107.362v125.45z" />
<glyph unicode="&#xe922;" glyph-name="twitter" d="M1024 765.477c-37.689-16.7-78.129-28.026-120.618-33.083 43.384 25.98 76.594 67.187 92.334 116.139-40.696-24.059-85.616-41.529-133.48-50.999-38.328 40.888-92.846 66.356-153.316 66.356-116.010 0-210.072-94.062-210.072-210.009 0-16.444 1.856-32.505 5.44-47.864-174.559 8.768-329.345 92.399-432.941 219.481-18.109-30.971-28.411-67.059-28.411-105.581 0-72.883 37.113-137.191 93.423-174.815-34.426 1.151-66.804 10.621-95.15 26.363v-2.624c0-101.741 72.435-186.652 168.48-205.978-17.597-4.735-36.153-7.359-55.35-7.359-13.565 0-26.683 1.344-39.544 3.904 26.746-83.505 104.301-144.228 196.188-145.893-71.859-56.31-162.466-89.776-260.879-89.776-16.956 0-33.658 1.024-50.102 2.88 92.975-59.702 203.354-94.511 321.988-94.511 386.423 0 597.648 320.069 597.648 597.648l-0.704 27.195c41.271 29.437 76.976 66.421 105.067 108.526z" />
<glyph unicode="&#xe923;" glyph-name="facebook" d="M767.965 959.787l-132.79 0.213c-149.185 0-245.595-98.913-245.595-252.008v-116.192h-133.514c-11.537 0-20.88-9.353-20.88-20.891v-168.35c0-11.537 9.353-20.88 20.88-20.88h133.514v-424.8c0-11.537 9.343-20.88 20.88-20.88h174.198c11.537 0 20.88 9.353 20.88 20.88v424.8h156.109c11.537 0 20.88 9.343 20.88 20.88l0.064 168.35c0 5.54-2.205 10.845-6.115 14.765s-9.236 6.125-14.776 6.125h-156.163v98.498c0 47.342 11.282 71.375 72.952 71.375l89.453 0.032c11.527 0 20.869 9.353 20.869 20.88v156.322c0 11.516-9.332 20.859-20.848 20.88z" />
<glyph unicode="&#xe924;" glyph-name="android" d="M138.942 626.1h-2.623c-33.626 0-61.043-27.504-61.043-61.043v-265.772c0-33.671 27.417-61.086 61.043-61.086h2.668c33.626 0 61.043 27.504 61.043 61.086v265.774c-0.045 33.537-27.504 61.041-61.088 61.041zM229.239 196.7c0-30.871 25.23-56.014 56.101-56.014h59.951v-143.556c0-33.713 27.504-61.13 61.043-61.13h2.623c33.671 0 61.13 27.46 61.13 61.13v143.556h83.782v-143.556c0-33.713 27.591-61.13 61.13-61.13h2.581c33.669 0 61.086 27.46 61.086 61.13v143.556h59.993c30.827 0 56.059 25.143 56.059 56.014v419.649h-565.479v-419.649zM652.822 870.84l47.62 73.504c3.061 4.636 1.705 10.975-2.974 13.993-4.634 3.061-10.975 1.792-13.993-2.974l-49.367-76.042c-37.036 15.173-78.402 23.699-122.087 23.699-43.727 0-85.006-8.526-122.129-23.699l-49.28 76.042c-3.016 4.766-9.402 6.035-14.081 2.974-4.679-3.016-6.035-9.357-2.974-13.993l47.662-73.504c-85.924-42.11-143.862-121.474-143.862-212.513 0-5.597 0.351-11.107 0.831-16.572h567.707c0.48 5.465 0.787 10.975 0.787 16.572 0.002 91.039-57.98 170.403-143.86 212.513zM380.403 739.222c-15.086 0-27.33 12.157-27.33 27.285s12.244 27.243 27.33 27.243c15.173 0 27.33-12.112 27.33-27.243s-12.244-27.285-27.33-27.285zM643.597 739.222c-15.086 0-27.33 12.157-27.33 27.285s12.244 27.243 27.33 27.243c15.129 0 27.285-12.112 27.285-27.243 0-15.129-12.157-27.285-27.285-27.285zM887.636 626.1h-2.536c-33.626 0-61.13-27.504-61.13-61.043v-265.772c0-33.671 27.549-61.086 61.13-61.086h2.581c33.669 0 61.043 27.504 61.043 61.086v265.774c0 33.537-27.462 61.041-61.088 61.041z" />
<glyph unicode="&#xe925;" glyph-name="behance" d="M924.746 676.409h-256.577v63.732h256.598v-63.732h-0.021zM497.36 415.066c16.555-25.643 24.828-56.778 24.828-93.331 0-37.801-9.328-71.712-28.304-101.666-12.073-19.822-27.062-36.565-45.072-50.045-20.284-15.589-44.298-26.278-71.905-31.99-27.695-5.721-57.67-8.611-89.96-8.611h-286.948v637.151h307.707c77.561-1.262 132.549-23.733 165.019-67.865 19.484-27.066 29.138-59.544 29.138-97.295 0-38.953-9.77-70.122-29.445-93.803-10.944-13.277-27.112-25.355-48.514-36.256 32.418-11.868 57.016-30.556 73.455-56.29zM146.942 515.378h134.825c27.707 0 50.105 5.266 67.355 15.794 17.239 10.511 25.84 29.195 25.84 56.021 0 29.638-11.389 49.309-34.223 58.777-19.627 6.578-44.738 9.966-75.209 9.966h-118.588v-140.557zM387.945 330.837c0 33.097-13.527 55.978-40.527 68.255-15.098 6.978-36.401 10.544-63.715 10.799h-136.76v-169.797h134.644c27.662 0 49.071 3.621 64.522 11.175 27.864 13.889 41.836 40.322 41.836 79.568zM1019.943 434.491c3.1-20.846 4.502-51.090 3.933-90.622h-332.295c1.833-45.867 17.667-77.942 47.698-96.298 18.11-11.511 40.067-17.132 65.779-17.132 27.112 0 49.209 6.854 66.22 20.943 9.268 7.468 17.443 18.010 24.512 31.311h121.797c-3.19-27.090-17.855-54.566-44.21-82.487-40.832-44.379-98.097-66.631-171.642-66.631-60.756 0-114.3 18.767-160.777 56.166-46.322 37.53-69.586 98.395-69.586 182.827 0 79.175 20.886 139.777 62.798 181.958 42.067 42.26 96.357 63.294 163.277 63.294 39.665 0 75.421-7.090 107.32-21.343 31.799-14.268 58.080-36.723 78.778-67.584 18.731-27.178 30.778-58.604 36.399-94.402zM900.058 422.601c-2.233 31.716-12.823 55.721-31.89 72.126-18.91 16.451-42.534 24.709-70.722 24.709-30.678 0-54.366-8.828-71.198-26.178-16.946-17.315-27.49-40.855-31.811-70.66l205.62 0.002z" />
<glyph unicode="&#xe926;" glyph-name="dribbble" d="M511.979 960c-282.775-0.021-511.979-229.239-511.979-512.021 0-282.732 229.204-511.976 511.979-511.976s511.988 229.244 512.019 511.976c-0.031 282.782-229.244 512-512.019 512.021zM825.687 694.533c49.955-63.435 81.233-141.983 85.178-227.761-57.8 12.268-112.411 18.239-163.324 18.239v0.012h-0.376c-40.989 0-79.457-3.721-115.714-10.151-8.811 21.596-17.744 42.339-26.743 62.206 80.745 35.416 158.248 85.845 220.978 157.455zM511.979 847.439c94.22 0 180.655-32.94 249.088-87.778-52.367-62.694-121.487-108.1-196.156-140.161-52.467 101.455-103.165 174.035-137.821 218.407 27.433 6.088 55.75 9.532 84.89 9.532zM335.544 805.799c27.726-32.749 83.238-104.784 142.528-217.25-120.582-35.894-242.005-44.327-315.472-44.306-2.095 0-4.166 0-6.199 0.021h-0.067c-12.373 0-23.012 0.195-31.895 0.467 28.662 114.69 107.233 209.674 211.105 261.067zM112.528 447.979c0 1.878 0.067 3.788 0.179 5.754 11.406-0.421 26.033-0.783 43.639-0.783h0.1c80.295 0.524 220.49 7.233 362.568 52.088 7.745-16.934 15.411-34.566 22.988-52.872-94.88-31.733-169.606-82.288-224.878-132.634-53.21-48.465-89.159-96.468-110.164-128.512-58.778 69.591-94.401 159.024-94.432 256.958zM511.979 48.511c-88.895 0-170.828 29.4-237.296 78.731 14.127 23.267 44.418 67.934 92.651 114.090 49.627 47.555 118.132 96.511 207.577 125.644 30.402-85.223 57.912-182.646 78.867-292.31-44.146-16.81-91.847-26.155-141.799-26.155zM738.056 119.443c-20.267 99.179-45.746 188.612-73.722 268.424 25.943 3.721 53.176 5.821 81.921 5.821h1.167c47.643 0 99.998-5.921 156.777-18.822-19.655-105.622-80.833-196.587-166.142-255.423z" />
<glyph unicode="&#xe927;" glyph-name="flickr" d="M512 960c-282.752 0-512-229.248-512-512s229.248-512 512-512 512 229.248 512 512c0 282.816-229.248 512-512 512zM323.583 319.744c-71.744 0-129.857 58.111-129.857 129.857s58.111 129.857 129.857 129.857 129.857-58.111 129.857-129.857-58.113-129.857-129.857-129.857zM701.76 319.744c-71.744 0-129.857 58.111-129.857 129.857s58.111 129.857 129.857 129.857 129.857-58.111 129.857-129.857-58.113-129.857-129.857-129.857z" />
<glyph unicode="&#xe928;" glyph-name="envelope1" d="M80.98 764.037l368.841-292.162c16.725-13.233 39.773-19.115 62.16-18.012 22.35-1.103 45.398 4.742 62.123 18.012l368.841 292.162c29.554 23.269 22.864 42.347-14.63 42.347h-832.595c-37.531 0-44.221-19.078-14.74-42.347zM969.596 686.953l-403.064-306.020c-15.071-11.322-34.811-16.836-54.477-16.578-19.703-0.257-39.443 5.293-54.514 16.578l-403.138 306.020c-29.922 22.68-54.404 10.513-54.404-27.018v-502.093c0-37.531 30.731-68.262 68.262-68.262h887.476c37.531 0 68.262 30.731 68.262 68.262v502.093c0 37.531-24.482 49.698-54.404 27.018z" />
<glyph unicode="&#xe929;" glyph-name="envelope2" d="M902.463 836.876h-780.923c-67.017 0-121.54-52.361-121.54-116.719v-544.314c0-64.358 54.523-116.719 121.54-116.719h780.923c67.017 0 121.537 52.361 121.537 116.719v544.314c0 64.358-54.521 116.719-121.537 116.719zM902.463 162.168h-780.923c-9.851 0-18.491 6.389-18.491 13.675v472.338l353.191-298.182c7.241-6.115 16.449-9.481 25.93-9.481l59.65-0.003c9.476 0 18.689 3.369 25.932 9.484l353.207 298.193v-472.354c-0.005-7.281-8.648-13.67-18.496-13.67zM512.001 442.832l-343.522 291h687.044l-343.522-291z" />
<glyph unicode="&#xe92a;" glyph-name="arrow-top-double" d="M83.314 313.714c-21.328 0-42.59 8.131-58.92 24.328-32.559 32.626-32.559 85.347 0 117.806l487.589 487.556 487.556-487.522c32.593-32.493 32.593-85.281 0-117.806s-85.314-32.626-117.773 0l-369.782 369.716-369.782-369.716c-16.196-16.196-37.558-24.361-58.887-24.361zM999.572-22.976c32.626 32.559 32.626 85.281 0 117.74l-487.556 487.622-487.556-487.556c-32.593-32.559-32.593-85.347 0-117.806 32.593-32.559 85.314-32.559 117.806 0l369.716 369.782 369.782-369.782c16.23-16.263 37.625-24.394 58.953-24.394 21.362-0.033 42.59 8.131 58.853 24.394z" />
<glyph unicode="&#xe92b;" glyph-name="phone1" d="M512.002 960c-282.75 0-512-229.25-512-512 0-282.745 229.25-512 512-512s511.996 229.257 511.996 512c0.002 282.75-229.246 512-511.996 512zM782.372 212.935l-40.995-41.003c-7.319-7.308-28.75-11.869-29.438-11.869-129.689-1.131-254.561 49.81-346.309 141.567-91.999 92.052-143 217.369-141.63 347.495 0 0.059 4.694 20.876 12.006 28.119l40.993 40.999c15.001 15.070 43.816 21.881 64.003 15.127l8.623-2.876c20.127-6.747 41.259-29.001 46.82-49.504l20.621-75.684c5.561-20.562-1.939-49.814-16.936-64.815l-27.372-27.376c26.874-99.489 104.936-177.566 204.442-204.506l27.362 27.383c15.070 15.070 44.312 22.565 64.83 17.012l75.673-20.695c20.507-5.635 42.757-26.633 49.502-46.754l2.876-8.748c6.686-20.129-0.072-48.938-15.070-63.872z" />
<glyph unicode="&#xe92c;" glyph-name="phone2" d="M1001.042 150.739l-158.141 158.158c-31.499 31.372-83.661 30.419-116.257-2.189l-79.672-79.654c-5.034 2.774-10.244 5.672-15.721 8.746-50.312 27.877-119.173 66.086-191.634 138.601-72.676 72.667-110.921 141.634-138.883 191.978-2.951 5.334-5.778 10.476-8.57 15.36l79.76 79.713c32.646 32.655 33.546 84.803 2.121 116.266l-158.141 158.176c-31.425 31.419-83.611 30.466-116.257-2.189l-44.569-44.825 1.218-1.209c-14.945-19.069-27.433-41.063-36.726-64.78-8.567-22.576-13.9-44.119-16.339-65.707-20.881-173.112 58.226-331.323 272.912-546.013 296.762-296.741 535.913-274.324 546.23-273.23 22.47 2.686 44.005 8.055 65.889 16.554 23.511 9.185 45.49 21.655 64.548 36.568l0.974-0.865 45.152 44.213c32.578 32.649 33.517 84.814 2.106 116.328z" />
<glyph unicode="&#xe93d;" glyph-name="pause-button" d="M73.143-64h292.571v1024h-292.571v-1024zM658.286 960v-1024h292.571v1024h-292.571z" />
<glyph unicode="&#xe941;" glyph-name="calendar" d="M916.765 836.108h-77.84v53.129c0 39.081-31.682 70.763-70.763 70.763h-2.831c-39.081 0-70.763-31.682-70.763-70.763v-53.129h-365.138v53.129c0 39.081-31.682 70.763-70.763 70.763h-2.831c-39.081 0-70.763-31.682-70.763-70.763v-53.129h-77.84c-39.081 0-70.763-31.682-70.763-70.763v-758.581c0-39.087 31.682-70.763 70.763-70.763h809.531c39.081 0 70.763 31.676 70.763 70.763v758.581c0 39.081-31.685 70.763-70.763 70.763zM868.646 47.806h-713.293v574.597h713.293v-574.597zM252.302 362.379h123.122c6.253 0 11.322 5.069 11.322 11.322v123.122c0 6.253-5.069 11.322-11.322 11.322h-123.122c-6.253 0-11.322-5.069-11.322-11.322v-123.122c0-6.253 5.069-11.322 11.322-11.322zM450.439 362.379h123.122c6.253 0 11.322 5.069 11.322 11.322v123.122c0 6.253-5.069 11.322-11.322 11.322h-123.122c-6.253 0-11.322-5.069-11.322-11.322v-123.122c0-6.253 5.069-11.322 11.322-11.322zM648.576 362.379h123.122c6.253 0 11.322 5.069 11.322 11.322v123.122c0 6.253-5.069 11.322-11.322 11.322h-123.122c-6.253 0-11.322-5.069-11.322-11.322v-123.122c0-6.253 5.069-11.322 11.322-11.322zM252.302 164.242h123.122c6.253 0 11.322 5.069 11.322 11.322v123.122c0 6.253-5.069 11.322-11.322 11.322h-123.122c-6.253 0-11.322-5.069-11.322-11.322v-123.122c0-6.253 5.069-11.322 11.322-11.322zM450.439 164.242h123.122c6.253 0 11.322 5.069 11.322 11.322v123.122c0 6.253-5.069 11.322-11.322 11.322h-123.122c-6.253 0-11.322-5.069-11.322-11.322v-123.122c0-6.253 5.069-11.322 11.322-11.322zM648.576 164.242h123.122c6.253 0 11.322 5.069 11.322 11.322v123.122c0 6.253-5.069 11.322-11.322 11.322h-123.122c-6.253 0-11.322-5.069-11.322-11.322v-123.122c0-6.253 5.069-11.322 11.322-11.322z" />
<glyph unicode="&#xe942;" glyph-name="heart-outline" d="M940.8 812.688c-53.729 53.732-125.156 83.3-201.144 83.3-75.999 0-147.433-29.568-201.182-83.3l-26.477-26.482-26.477 26.482c-53.732 53.732-125.183 83.3-201.165 83.3-75.98 0-147.436-29.568-201.163-83.3-110.926-110.936-110.926-291.435 0-402.328l397.478-397.48c6.499-6.523 14.59-10.517 23.042-12.055 2.835-0.559 5.686-0.819 8.542-0.819 11.244 0 22.507 4.289 31.071 12.874l397.478 397.48c110.931 110.893 110.931 291.392-0.003 402.328zM878.658 472.499l-366.658-366.664-366.666 366.664c-76.658 76.647-76.658 201.357 0 278.045 37.132 37.127 86.519 57.548 139.021 57.548 52.508 0 101.881-20.421 139-57.548l57.572-57.591c16.503-16.478 45.66-16.478 62.16 0l57.55 57.591c37.121 37.127 86.497 57.548 139.021 57.548 52.508 0 101.878-20.421 139-57.548 76.666-76.688 76.666-201.395 0-278.045z" />
<glyph unicode="&#xe943;" glyph-name="clock" d="M512 960c-281.6 0-512-230.4-512-512s230.4-512 512-512 512 230.4 512 512-230.4 512-512 512zM512 38.4c-225.28 0-409.6 184.32-409.6 409.6s184.32 409.6 409.6 409.6 409.6-184.32 409.6-409.6-184.32-409.6-409.6-409.6zM537.6 704h-76.8v-307.2l266.24-163.84 40.96 66.56-230.4 138.24z" />
<glyph unicode="&#xe944;" glyph-name="asside" d="M893.346 706.663l-208.002 208.009c-22.232 22.223-51.574 36.674-88.013 43.334v-339.34h339.345c-6.667 36.455-21.121 65.783-43.329 87.997zM576.003 533.338c-17.786 0-32.899 6.218-45.34 18.664-12.446 12.439-18.662 27.551-18.662 45.333v362.665h-362.667c-17.774 0-32.887-6.218-45.33-18.664-12.446-12.439-18.666-27.551-18.666-45.333v-896.006c0-17.786 6.221-32.899 18.666-45.34 12.446-12.434 27.556-18.659 45.333-18.659h725.346c17.772 0 32.875 6.225 45.316 18.659 12.441 12.451 18.666 27.554 18.666 45.34v533.341h-362.663z" />
<glyph unicode="&#xe945;" glyph-name="image-gallery" d="M157.53 273.071v440.487h-67.481c-49.881 0-90.049-40.792-90.049-90.628v-595.544c0-49.903 40.168-90.249 90.049-90.249h595.566c49.859 0 90.806 40.346 90.806 90.249v65.053h-438.259c-99.049-0.022-180.632 81.561-180.632 180.632zM933.751 958.886h-595.588c-49.859 0-90.584-40.391-90.584-90.249v-595.566c0-49.926 40.747-90.606 90.584-90.606h595.588c49.837 0 90.249 40.68 90.249 90.606v595.544c0 49.903-40.413 90.272-90.249 90.272zM921.498 323.086c-4.968-9.179-14.525-14.615-24.952-14.615h-510.329c-8.978 0-17.422 4.010-22.768 11.184-5.347 7.218-6.973 16.397-4.389 25.019l73.006 241.475c4.812 15.884 18.224 27.625 34.62 30.321 16.397 2.673 32.883-4.233 42.507-17.756l102.079-143.405c13.746-19.315 40.368-24.105 59.906-10.783l93.992 63.827c9.669 6.572 21.543 8.956 32.972 6.661 11.473-2.272 21.521-9.090 27.915-18.892l94.215-144.185c5.703-8.755 6.171-19.716 1.225-28.85z" />
<glyph unicode="&#xe946;" glyph-name="photo" d="M512 550.4c-84.838 0-153.6-68.792-153.6-153.6 0-84.838 68.762-153.6 153.6-153.6 84.818 0 153.6 68.762 153.6 153.6 0 84.808-68.782 153.6-153.6 153.6zM921.6 704h-122.88c-16.896 0-35.103 13.107-40.438 29.143l-31.764 95.324c-5.356 16.026-23.542 29.133-40.438 29.133h-348.16c-16.896 0-35.103-13.107-40.438-29.143l-31.764-95.324c-5.356-16.026-23.542-29.133-40.438-29.133h-122.88c-56.32 0-102.4-46.080-102.4-102.4v-460.8c0-56.32 46.080-102.4 102.4-102.4h819.2c56.32 0 102.4 46.080 102.4 102.4v460.8c0 56.32-46.080 102.4-102.4 102.4zM512 140.8c-141.384 0-256 114.616-256 256 0 141.373 114.616 256 256 256 141.363 0 256-114.627 256-256 0-141.384-114.637-256-256-256zM885.76 529.992c-19.784 0-35.84 16.036-35.84 35.84 0 19.784 16.056 35.84 35.84 35.84 19.804 0 35.84-16.056 35.84-35.84 0-19.804-16.046-35.84-35.84-35.84z" />
<glyph unicode="&#xe947;" glyph-name="link2" d="M967.392 539.080l-273.244-273.234c-75.472-75.483-197.751-75.483-273.229 0l-91.074 91.085 91.074 91.064 91.081-91.064c25.157-25.109 65.976-25.16 91.085 0l273.225 273.223c25.096 25.128 25.096 65.981 0 91.115l-91.074 91.074c-25.109 25.092-65.976 25.092-91.087 0l-97.546-97.563c-45.222 26.614-96.618 38.028-147.502 34.6l153.984 154.037c75.472 75.443 197.81 75.443 273.225 0l91.085-91.074c75.472-75.447 75.472-197.821-0.002-273.263zM427.339 181.175l-97.493-97.486c-25.157-25.16-65.976-25.098-91.074 0l-91.081 91.074c-25.157 25.106-25.157 65.928 0 91.085l273.229 273.234c25.102 25.092 65.987 25.092 91.081 0l91.085-91.085 91.064 91.085-91.064 91.074c-75.483 75.443-197.761 75.443-273.238 0l-273.236-273.225c-75.479-75.494-75.479-197.832 0-273.242l91.079-91.076c75.419-75.483 197.755-75.483 273.229 0l153.973 153.98c-50.88-3.392-102.142 8.037-147.555 34.583z" />
<glyph unicode="&#xe948;" glyph-name="audio" d="M425.408 832.946l-194.498-145.651h-177.624c-29.308 0-53.287-23.979-53.287-53.287v-371.233c0-29.317 23.979-53.287 53.287-53.287h177.624l194.498-145.651c35.525-26.644 85.259-1.776 85.259 42.63v683.851c0 44.406-50.623 69.273-85.259 42.63zM686.515 745.91c-23.979 23.979-63.944 23.979-87.915 0-23.979-23.979-23.979-63.944 0-87.924 115.455-115.455 115.455-302.857 0-418.312-23.979-23.979-23.979-63.944 0-87.915 12.425-12.434 28.411-17.762 43.509-17.762s31.981 6.208 43.518 18.65c165.19 162.526 165.19 428.961 0.888 593.263zM755.788 885.345c-23.97-23.979-23.97-63.944 0-87.924 93.252-93.252 144.772-216.701 144.772-349.030s-51.52-255.778-144.772-349.030c-23.97-23.979-23.97-63.944 0-87.924 12.434-12.425 28.42-18.65 43.518-18.65 15.986 0 31.972 6.217 43.518 17.762 116.343 116.343 181.167 271.764 181.167 436.954s-63.944 319.722-181.167 436.954c-23.091 24.867-62.168 24.867-87.036 0.888z" />
<glyph unicode="&#xe949;" glyph-name="info" d="M512 960c-282.752 0-512-229.248-512-512s229.248-512 512-512 512 229.248 512 512-229.248 512-512 512zM575.999 192c0-35.328-28.673-63.999-63.999-63.999s-63.999 28.673-63.999 63.999v320.001c0 35.328 28.673 63.999 63.999 63.999s63.999-28.673 63.999-63.999v-320.001zM512 638.976c-35.328 0-63.999 28.673-63.999 63.999s28.673 63.999 63.999 63.999 63.999-28.673 63.999-63.999-28.671-63.999-63.999-63.999z" />
<glyph unicode="&#xe94a;" glyph-name="status" d="M910.222 960h-796.444c-62.578 0-113.778-51.2-113.778-113.778v-796.444c0-62.578 51.2-113.778 113.778-113.778h796.444c62.578 0 113.778 51.2 113.778 113.778v796.444c0 62.578-51.2 113.778-113.778 113.778zM796.444 618.667h-568.889v113.778h568.889v-113.778zM796.444 391.111h-568.889v113.778h568.889v-113.778zM625.778 163.556h-398.222v113.778h398.222v-113.778z" />
<glyph unicode="&#xe94b;" glyph-name="play-button2" d="M512 960c-282.317 0-512-229.683-512-512s229.683-512 512-512 512 229.683 512 512-229.683 512-512 512zM777.609 433.903l-375.467-256c-2.884-1.963-6.246-2.97-9.609-2.97-2.731 0-5.478 0.649-7.97 1.98-5.598 2.953-9.097 8.755-9.097 15.087v512c0 6.332 3.499 12.134 9.097 15.087 5.598 2.97 12.356 2.56 17.596-0.99l375.467-256c4.642-3.174 7.441-8.448 7.441-14.097s-2.799-10.923-7.458-14.097z" />
<glyph unicode="&#xe94c;" glyph-name="eye" d="M512 782.559c-225.859 0-420.519-133.143-509.94-325.276-2.746-5.822-2.746-12.633 0-18.565 89.421-192.133 284.082-325.276 509.94-325.276s420.519 133.143 509.94 325.276c2.746 5.822 2.746 12.633 0 18.565-89.421 192.134-284.081 325.276-509.94 325.276zM512 217.142c-127.54 0-230.802 103.373-230.802 230.803 0 127.54 103.372 230.802 230.802 230.802 127.54 0 230.802-103.372 230.802-230.802s-103.372-230.803-230.802-230.803zM659.753 448.055c0-81.602-66.151-147.753-147.753-147.753s-147.753 66.151-147.753 147.753c0 81.602 66.151 147.753 147.753 147.753s147.753-66.151 147.753-147.753z" />
<glyph unicode="&#xe94d;" glyph-name="user1" d="M832.004 255.993h-64.003c-70.689 0-128.004 57.315-128.004 128.006v41.12c28.318 33.657 48.628 73.468 61.253 115.535 1.311 7.091 8.136 10.594 12.688 15.469 24.504 24.5 29.322 65.845 10.943 95.284-2.503 4.468-7.011 8.343-6.755 13.878 0 37.532 0.188 75.123-0.049 112.625-1.005 45.279-13.946 92.38-45.691 125.908-25.629 27.089-60.82 43.219-97.126 50.123-45.879 8.752-93.876 8.309-139.316-3.25-39.378-9.938-76.374-33.001-99.249-67.188-20.256-29.721-29.13-65.809-30.629-101.376-0.561-38.186-0.129-76.467-0.245-114.746 0.872-7.663-5.629-12.848-8.564-19.192-17.312-31.405-9.691-74.192 18.126-97.033 7.057-4.871 8.378-13.749 10.934-21.404 12.131-37.813 32.252-72.782 57.689-103.253v-42.5c0-70.691-57.313-128.006-127.999-128.006h-64.005c0 0-115.997-31.99-192.002-191.996v-64.003c0-35.369 28.626-63.99 64.003-63.99h896.007c35.369 0 63.992 28.622 63.992 63.99v64.003c-76.001 159.994-191.998 191.996-191.998 191.996z" />
<glyph unicode="&#xe94e;" glyph-name="play-arrow" d="M109.714 960v-1024l804.571 512z" />
<glyph unicode="&#xe94f;" glyph-name="chat" d="M0 823.467v-563.2c0-55.501 46.899-102.4 102.4-102.4h136.533v-170.667c0-7.049 4.335-13.38 10.906-15.923 2.014-0.785 4.096-1.143 6.161-1.143 4.71 0 9.318 1.946 12.629 5.581l165.581 182.153h487.39c55.501 0 102.4 46.899 102.4 102.4v563.2c0 55.501-46.899 102.4-102.4 102.4h-819.2c-55.501 0-102.4-46.899-102.4-102.4zM682.667 550.4c0 37.649 30.618 68.267 68.267 68.267s68.267-30.618 68.267-68.267-30.618-68.267-68.267-68.267-68.267 30.618-68.267 68.267zM443.733 550.4c0 37.649 30.618 68.267 68.267 68.267s68.267-30.618 68.267-68.267-30.618-68.267-68.267-68.267-68.267 30.618-68.267 68.267zM204.8 550.4c0 37.649 30.618 68.267 68.267 68.267s68.267-30.618 68.267-68.267-30.618-68.267-68.267-68.267-68.267 30.618-68.267 68.267z" />
<glyph unicode="&#xe950;" glyph-name="magnifier1" d="M1012.465 61.548l-211.862 211.862c-7.847 7.847-7.847 15.693-3.923 23.54 43.157 66.697 66.697 145.165 66.697 231.479 0 239.326-192.245 431.571-431.571 431.571s-431.571-192.245-431.571-431.571 192.245-431.571 431.571-431.571c86.314 0 164.782 23.54 231.479 66.697 7.847 3.923 19.617 3.923 23.54-3.923l211.862-211.862c15.693-15.693 39.234-15.693 54.927 0l54.927 54.927c19.617 19.617 19.617 43.157 3.923 58.851zM435.73 253.793c-153.011 0-274.636 121.625-274.636 274.636s121.625 274.636 274.636 274.636 274.636-121.625 274.636-274.636-121.625-274.636-274.636-274.636z" />
<glyph unicode="&#xe954;" glyph-name="magnifier2" d="M1003.189 56.833l-216.395 216.43c52.594 73.158 81.511 160.58 81.511 252.602 0 115.913-45.127 224.925-127.204 306.931-81.9 81.971-190.982 127.204-306.966 127.204-115.949 0-224.995-45.127-306.966-127.204-81.971-81.936-127.133-190.982-127.133-306.931s45.127-224.96 127.133-307.002c81.971-81.971 190.982-127.204 306.966-127.204 91.987 0 179.338 28.775 252.567 81.511l216.395-216.43c13.874-13.839 31.925-20.74 50.046-20.74 18.157 0 36.243 6.902 50.046 20.74 27.642 27.678 27.642 72.45 0 100.092zM227.296 318.991c-55.284 55.284-85.687 128.796-85.687 206.909s30.403 151.554 85.687 206.839c55.249 55.284 128.69 85.723 206.839 85.723s151.625-30.438 206.874-85.723c55.284-55.284 85.723-128.761 85.723-206.874s-30.403-151.59-85.723-206.909c-55.284-55.284-128.69-85.652-206.874-85.652s-151.66 30.438-206.839 85.687z" />
<glyph unicode="&#xe955;" glyph-name="magnifier3" d="M998.935 82.081l-222.458 222.454c-1.182 1.182-2.569 2.009-3.805 3.109 43.772 66.399 69.32 145.881 69.32 231.356 0 232.513-188.487 421-420.996 421s-420.996-188.487-420.996-420.996c0-232.505 188.483-420.996 420.992-420.996 85.479 0 164.956 25.548 231.356 69.32 1.1-1.231 1.923-2.618 3.105-3.8l222.462-222.462c33.418-33.414 87.598-33.414 121.020 0 33.414 33.418 33.414 87.598 0 121.016zM420.996 263.953c-151.911 0-275.054 123.144-275.054 275.050 0 151.911 123.148 275.054 275.054 275.054 151.902 0 275.050-123.148 275.050-275.054s-123.148-275.050-275.050-275.050z" />
<glyph unicode="&#xe956;" glyph-name="user2" d="M512 256c158.816 0 288 157.952 288 352s-129.216 352-288 352c-78.304 0-151.488-37.568-206.016-105.76-52.896-66.080-81.984-153.568-81.984-246.272 0-194.016 129.184-351.968 288-351.968zM512 895.968c123.488 0 224-129.184 224-288 0-158.784-100.512-288-224-288s-224 129.216-224.032 288c0 158.816 100.512 288 224.032 288zM736 320c-17.696 0-32-14.304-32-32s14.304-32 32-32c123.488 0 224-100.512 224-224 0-17.632-14.368-32-32-32h-832c-17.632 0-32 14.368-32 32 0 123.488 100.512 224 224 224 17.696 0 32 14.304 32 32s-14.304 32-32 32c-158.816 0-288-129.184-288-288 0-52.928 43.072-96 96-96h832c52.928 0 96 43.072 96 96 0 158.784-129.184 288-288 288z" />
<glyph unicode="&#xe958;" glyph-name="shop1" d="M947.874 701.862c4.788 20.283 0.117 41.285-12.817 57.626s-32.303 25.713-53.142 25.713h-644.743l-29.164 122.678c-7.298 30.688-34.383 52.12-65.87 52.12-5.265 0-10.562-0.624-15.742-1.86-36.359-8.642-58.903-45.254-50.261-81.615l150.215-634.13c7.257-30.75 34.383-52.218 65.965-52.218h481.16c31.582 0 58.705 21.468 65.96 52.207l108.44 459.478zM719.836 325.726h-373.881l-76.446 323.929h526.775l-76.448-323.929zM474.752 30.85c0-52.386-42.467-94.853-94.853-94.853s-94.853 42.467-94.853 94.853c0 52.386 42.467 94.853 94.853 94.853s94.853-42.467 94.853-94.853zM785.33 30.85c0-52.386-42.467-94.853-94.853-94.853s-94.853 42.467-94.853 94.853c0 52.386 42.467 94.853 94.853 94.853s94.853-42.467 94.853-94.853z" />
<glyph unicode="&#xe959;" glyph-name="shop3" d="M1002.878 734.515h-597.126c-19.443 0-30.51-15.032-24.744-33.605l94.463-276.712c4.653-14.931 21.122-27.030 36.761-27.030h391.488c15.639 0 32.088 12.099 36.701 27.030l82.324 283.247c4.694 14.951-4.188 27.070-19.868 27.070zM549.075 78.393c0-49.332-39.992-89.324-89.324-89.324s-89.324 39.992-89.324 89.324c0 49.332 39.992 89.324 89.324 89.324s89.324-39.992 89.324-89.324zM927.048 77.28c0-49.332-39.992-89.324-89.324-89.324s-89.324 39.992-89.324 89.324c0 49.332 39.992 89.324 89.324 89.324s89.324-39.992 89.324-89.324zM944.974 306.265h-522.409l-209.138 601.779h-162.847c-27.94 0-50.58-22.64-50.58-50.58s22.64-50.58 50.58-50.58h90.902l209.138-601.779h594.354c27.94 0 50.58 22.64 50.58 50.58s-22.64 50.58-50.58 50.58z" />
<glyph unicode="&#xe962;" glyph-name="shop4" d="M949.046 866.908h-762.865c-2.297 0-4.394-0.864-6.548-1.512l-18.751 61.617c-5.963 19.595-24.037 32.987-44.52 32.987h-93.090c-12.853 0-23.273-10.42-23.273-23.273v-46.545c0-12.853 10.42-23.273 23.273-23.273h58.615l145.41-477.84-54.308-63.358c-21.465-25.041-31.13-59.544-21.251-91.010 12.635-40.244 48.153-65.972 89.103-65.972h666.795c12.853 0 23.273 10.42 23.273 23.273v46.545c0 12.853-10.42 23.273-23.273 23.273h-666.797l73.774 86.068c1.855 2.164 3.218 4.608 4.625 7.023h450.989c36.072 0 68.898 20.832 84.258 53.47l162.402 345.098c4.658 9.932 7.113 20.954 7.113 31.887v6.591c0 41.391-33.559 74.95-74.954 74.95zM372.365 29.090c0-51.413-41.679-93.092-93.092-93.092s-93.092 41.679-93.092 93.092c0 51.413 41.679 93.092 93.092 93.092s93.092-41.679 93.092-93.092zM930.91 29.090c0-51.413-41.679-93.092-93.092-93.092s-93.092 41.679-93.092 93.092c0 51.413 41.679 93.092 93.092 93.092s93.092-41.679 93.092-93.092z" />
<glyph unicode="&#xe967;" glyph-name="shop5" d="M999.275 786.099c-8.785 11.798-22.627 18.749-37.333 18.749h-716.863l-12.639 113.745c-2.619 23.574-22.544 41.407-46.26 41.407h-124.122c-25.706 0-46.546-20.84-46.546-46.546s20.84-46.546 46.546-46.546h82.46l12.58-113.215c0.037-0.394 0.081-0.785 0.13-1.176l44.749-402.751c2.619-23.574 22.547-41.407 46.263-41.407h593.005c20.567 0 38.698 13.501 44.591 33.203l120.699 403.396c4.214 14.091 1.52 29.346-7.261 41.14zM806.588 401.451h-516.686l-34.481 310.305h644.007l-92.84-310.305zM341.332 215.274c-76.996 0-139.637-62.641-139.637-139.637 0-76.999 62.641-139.637 139.637-139.637s139.637 62.638 139.637 139.637c0 76.996-62.641 139.637-139.637 139.637zM341.332 29.091c-25.665 0-46.546 20.877-46.546 46.546 0 25.665 20.88 46.546 46.546 46.546s46.546-20.88 46.546-46.546c0-25.668-20.88-46.546-46.546-46.546zM710.595 215.274c-76.999 0-139.637-62.641-139.637-139.637 0-76.999 62.638-139.637 139.637-139.637s139.637 62.638 139.637 139.637c0 76.996-62.641 139.637-139.637 139.637zM710.595 29.091c-25.665 0-46.546 20.877-46.546 46.546 0 25.665 20.88 46.546 46.546 46.546s46.546-20.88 46.546-46.546c0-25.668-20.88-46.546-46.546-46.546z" />
<glyph unicode="&#xe96a;" glyph-name="plus1" d="M1024 496.762h-463.238v463.238h-97.524v-463.238h-463.238v-97.524h463.238v-463.238h97.524v463.238h463.238z" />
<glyph unicode="&#xe971;" glyph-name="plus3" d="M910.224 960h-796.448c-62.802 0-113.776-50.974-113.776-113.776v-796.448c0-62.806 50.974-113.776 113.776-113.776h796.448c62.806 0 113.776 50.974 113.776 113.776v796.448c0 62.802-50.971 113.776-113.776 113.776zM910.224 49.776h-796.448v796.448h796.448v-796.448zM284.444 391.112h170.668v-170.668c0-31.288 25.485-56.888 56.888-56.888 31.288 0 56.888 25.6 56.888 56.888v170.668h170.668c31.288 0 56.888 25.6 56.888 56.888 0 31.403-25.6 56.888-56.888 56.888h-170.668v170.668c0 31.403-25.6 56.888-56.888 56.888-31.403 0-56.888-25.485-56.888-56.888v-170.668h-170.668c-31.403 0-56.888-25.485-56.888-56.888 0-31.288 25.485-56.888 56.888-56.888z" />
</font>
</defs>
</svg>
